<?xml version="1.0" standalone="no"?>
<!DOCTYPE svg PUBLIC "-//W3C//DTD SVG 1.1//EN" "http://www.w3.org/Graphics/SVG/1.1/DTD/svg11.dtd" >
<svg>
<metadata>
Created by FontForge 20120731 at Fri Sep 28 09:23:03 2018
 By www
Copyright (c) Alex Kaczun, dba Type Innovations, 1997. All rights reserved.
</metadata>
<defs>
<font id="GolumW01-Regular" horiz-adv-x="408" >
  <font-face 
    font-family="GolumW01-Regular"
    font-weight="400"
    font-stretch="normal"
    units-per-em="1000"
    panose-1="2 0 5 5 2 0 0 2 0 4"
    ascent="781"
    descent="-219"
    x-height="518"
    cap-height="676"
    bbox="-112 -244 1186 960"
    underline-thickness="20"
    underline-position="-143"
    unicode-range="U+000D-2122"
  />
<missing-glyph horiz-adv-x="0" 
 />
    <glyph glyph-name=".notdef" horiz-adv-x="0" 
 />
    <glyph glyph-name=".null" horiz-adv-x="0" 
 />
    <glyph glyph-name="uni000D" unicode="&#xd;" horiz-adv-x="0" 
 />
    <glyph glyph-name="space" unicode=" " horiz-adv-x="330" 
 />
    <glyph glyph-name="exclam" unicode="!" horiz-adv-x="382" 
d="M302 118v-21t-1.5 -26.5t-4 -24.5t-6.5 -16t-15.5 -8t-16.5 -6q-19 -9 -35.5 -20.5t-44.5 -11.5q-14 0 -24 8t-20 14q-7 5 -17 7t-17 7q-6 5 -11 21.5t-5 26.5v66q0 9 10 14.5t16 9.5q21 13 42 24.5t54 11.5q10 0 17.5 -7t14.5 -9q12 -4 23.5 -8t20.5 -10t14.5 -16
t5.5 -26zM288 506q4 -8 4.5 -8.5t-0.5 1t-2.5 1t-1.5 -9.5t-5 -12t-5 -12q0 -8 3 -22.5t3 -25.5q0 -18 -6.5 -24t-13.5 -16q-6 -11 -8.5 -27t-5.5 -29q-2 -7 -6.5 -21t-11.5 -28t-16 -24.5t-18 -10.5q-21 0 -33.5 5t-14.5 25l-30 106q1 7 0.5 8.5t-0.5 9.5q0 22 -8.5 41.5
t-13.5 40.5v56q-3 7 -6 18t-5.5 23.5t-3.5 25.5t-1 23q0 13 2.5 22.5t6 17.5t7 15.5t6.5 18.5l58 2q13 -6 36 -8t45.5 -6t39 -10.5t17.5 -21.5z" />
    <glyph glyph-name="quotedbl" unicode="&#x22;" horiz-adv-x="376" 
d="M156 632q0 -32 -6.5 -58.5t-11.5 -47.5q-4 -16 -4.5 -40t-1.5 -40v-7v-10.5t-0.5 -10t-1.5 -4.5h-28q-6 0 -19 7t-13 15v18q0 26 1 53.5t-5 56.5q-2 7 -6.5 13t-9 11.5t-8.5 11.5t-4 12q0 17 6 36.5t8 37.5q1 7 0 15t2 13q5 7 14.5 6.5t19.5 -0.5q27 0 41 -4t20 -14
t6.5 -27t0.5 -43zM334 598q0 -8 -6.5 -17t-9.5 -15q-8 -15 -13 -43t-5 -49v-24q0 -22 -8 -31.5t-24 -16.5q-4 8 -10 16t-12 16.5t-10 18.5t-4 23q0 9 5 21t5 19q0 13 -4 22t-8 20q0 17 0.5 32t-4.5 32q-2 9 -7 14.5t-5 17.5q0 10 4 23t10.5 23.5t16 18t21.5 7.5q2 0 12 -4.5
t21 -10t20 -10.5t9 -7v-36q0 -17 3 -30.5t3 -29.5z" />
    <glyph glyph-name="numbersign" unicode="#" horiz-adv-x="770" 
d="M454 385q0 8 -9 14.5t-21 11t-25 7t-21 2.5q-9 0 -16.5 -6t-14 -14.5t-12.5 -17t-10 -12.5q-2 -8 -7 -15t-5 -13q0 -14 14.5 -24t32.5 -10q36 0 53.5 13t28.5 37q3 6 7.5 13t4.5 14zM712 504q0 -39 -25 -67.5t-64 -28.5h-50q-21 -8 -29.5 -30t-8.5 -49q0 -7 8.5 -12.5
t21 -9t26 -5t23.5 -1.5q12 0 14.5 -5.5t2.5 -15.5t-4 -20.5t-10.5 -19.5t-16 -15t-19.5 -6h-29q-15 0 -33.5 -3t-28.5 -13t-14.5 -25t-7.5 -32t-6 -33.5t-10 -29.5q-4 -8 -9 -10.5t-11 -7.5q-8 -5 -12 -11.5t-21 -6.5q-15 0 -28 1.5t-29 -1.5v70q0 11 7 17.5t11 13.5
q3 7 2 13t1 15q2 8 7.5 15t6.5 19h-21q-12 -5 -24 -5q-13 0 -22.5 3.5t-20.5 3.5q-4 0 -8 -4t-7.5 -9t-6.5 -10t-5 -7q-6 -6 -11.5 -17t-11 -23.5t-9.5 -25t-5 -21.5q-2 -14 -2.5 -25t-2.5 -18t-9 -10.5t-23 -3.5q-11 0 -23.5 2.5t-23 7.5t-17.5 12.5t-7 18.5q0 16 7 27
t15.5 21.5t15.5 23.5t7 33q0 14 -4 23.5t-19 9.5q-12 0 -20 -2.5t-21 -2.5q-6 0 -15.5 2.5t-18.5 7t-15 10t-6 11.5q0 9 7.5 17t17.5 15t19.5 13t14.5 11q3 5 6 9.5t11 4.5q10 0 16.5 -3.5t17.5 -3.5q31 0 51.5 16.5t20.5 45.5v14q0 4 -1 5.5l-1 1.5l1.5 0.5t6.5 2.5
q-3 9 -13 17.5t-18 8.5q-7 0 -17.5 -2.5t-19.5 -2.5h-34q-2 10 -8.5 19t-6.5 15q0 8 10.5 18t14.5 15t7.5 11t8 11t11.5 8.5t18 3.5q16 0 27.5 -3.5t24.5 -3.5q18 0 28.5 11t16.5 27t9.5 34.5t8.5 34.5q8 27 25 45.5t53 18.5q26 0 38.5 -7.5t12.5 -34.5q0 -12 -5.5 -19
t-9.5 -15q-4 -7 -8 -18t-7.5 -23t-6 -23t-2.5 -18q0 -5 5 -6t10 -1q17 0 31.5 6.5t27.5 6.5q4 0 9 -2.5t11 -2.5q3 0 8 2.5t6 2.5q6 6 4.5 15t0.5 20q2 14 9 21t12 20q3 7 8 20t12 26t15.5 22t19.5 9q13 0 22 -4.5t18 -10t18.5 -10t24.5 -4.5q-5 -17 -17 -26t-21 -20
q-7 -8 -5.5 -21.5t0.5 -26.5q-1 -10 -6 -16.5t-5 -14.5q0 -6 10 -8.5t23 -3.5t26 -1.5t19 -0.5q5 0 16 -2.5t11 -4.5z" />
    <glyph glyph-name="dollar" unicode="$" horiz-adv-x="580" 
d="M408 184q0 17 -7.5 28t-19 18.5t-25.5 12.5t-28 8l-12 -113q2 -8 2.5 -12.5t11.5 -4.5q2 0 10 5.5t13 7.5q18 7 36.5 17.5t18.5 32.5zM249 528q0 15 -4 24.5t-9 17.5q-9 -3 -22 -8t-25 -12t-21 -15.5t-9 -18.5q0 -24 15.5 -39.5t32.5 -23.5q5 -2 10.5 -8.5t12.5 -6.5
q9 0 8 5.5t1 13.5q4 15 7 33t3 38zM541 223q0 -16 -1 -36.5t-7 -40.5q-5 -14 -17 -24.5t-21 -19.5q-14 -14 -24 -26t-24 -24q-9 -8 -25 -11t-34 -6t-33.5 -7t-22.5 -13q-6 -8 -9 -28t-3 -33v-16q0 -18 -5 -25t-13.5 -9.5t-20.5 -3.5t-26 -5q-5 7 -8.5 20.5t-3.5 22.5v77
q0 2 -6 4l-13.5 4.5t-14.5 4t-8 1.5h-54q-13 4 -22 6.5t-22 8.5q-8 4 -17 9.5t-16 11.5q-3 3 -7.5 8t-9 11.5t-8.5 12.5t-5 10q-7 18 -7.5 37.5t-0.5 45.5q0 10 8 18.5t19.5 14t25.5 8.5t26 3q11 0 22.5 -5t21 -13.5t15.5 -19t6 -20.5v-46q0 -2 5 -4.5t11.5 -5.5t12 -5
t7.5 -2q16 0 21.5 15t5.5 31v16q0 11 4 25.5t4 27.5q0 8 -7 13t-12 10q-8 10 -19 12t-25 4q-20 3 -34.5 9.5t-31.5 13.5q-14 6 -27 21.5t-24 26.5t-23 31.5t-12 37.5v52q0 14 -2 24.5t-2 25.5q0 8 1.5 10.5t4 3t5 0.5t5.5 3q6 8 3.5 19t3.5 19q13 17 31 36t38 28
q19 8 32.5 17.5t36.5 14.5q9 2 19.5 3t19.5 4t15 8.5t6 15.5v23q0 4 4 12t10 16.5t12 15t10 6.5t10.5 -4t12.5 -9.5t10 -11.5t4 -10q0 -3 -0.5 -11t-0.5 -16.5t-0.5 -16.5t-0.5 -11q0 -8 9.5 -11t17.5 -5q25 -5 44 -9t38 -16q7 -4 18.5 -10.5t18.5 -12.5q4 -3 8.5 -11.5
t8.5 -18.5t7 -20t3 -15t-2.5 -16.5t-3.5 -16.5q-4 -17 -8 -26.5t-11 -14.5t-19 -6t-31 -1q-10 0 -21.5 5t-21.5 13.5t-17 18.5t-7 21q0 10 3.5 17.5t3.5 13.5q0 4 -4.5 7t-10.5 5l-12 4l-9 3q-4 -7 -6 -17.5t-3 -22.5t-1 -24v-21q0 -21 6 -32.5t16 -18.5t24 -11t31 -9
q13 -4 28.5 -7.5t27.5 -9.5q21 -10 35.5 -16t21.5 -28q3 -11 14 -24.5t15 -21.5q4 -9 7 -17.5t3 -22.5v-46z" />
    <glyph glyph-name="percent" unicode="%" horiz-adv-x="856" 
d="M251 534q0 6 -1.5 13.5t-4.5 15t-6.5 13.5t-7.5 8q-9 5 -16 6t-12.5 2.5t-10 6t-9.5 15.5q-8 -8 -14 -12.5t-6 -17.5v-32q0 -14 -5 -22.5t-5 -21.5q0 -26 7 -52.5t17 -45.5q2 -4 8.5 -12t11.5 -8q19 0 32.5 13t13.5 31v34q0 17 4 34.5t4 31.5zM703 204q0 14 -3.5 23.5
t-9.5 16t-13 12.5l-14 12q-2 2 -6.5 7t-9.5 5q-17 0 -21.5 -11.5t-4.5 -20.5v-24q0 -9 -1.5 -16l-3 -14t-2.5 -14.5t-1 -19.5q0 -31 7.5 -47t16.5 -35q2 -5 4.5 -15.5t11.5 -10.5q13 0 22.5 6.5t15.5 17t9 23.5t3 25v80zM661 678q0 -14 -5 -24t-11.5 -18t-14 -15.5
t-11.5 -16.5q-14 -28 -27 -54.5t-27 -53.5q-22 -45 -42 -89.5t-48 -86.5q-14 -21 -25.5 -45t-22.5 -49t-22 -50.5t-22 -47.5q-5 -11 -14 -22t-14 -22q-4 -10 -4 -26t-6 -24q-9 -14 -22 -21.5t-24 -20.5q-6 -8 -9.5 -16t-16.5 -8q-8 0 -19 1t-21.5 3t-18 6t-7.5 10
q0 9 5.5 20.5t13.5 23t16 21.5t13 17q11 14 15.5 34t12.5 34q20 39 38.5 73.5t33.5 80.5q6 19 14 33t16 26t17.5 24t18.5 27q6 9 10.5 25t9.5 27q8 18 12 38.5t14 37.5q5 8 14.5 18t19.5 20.5t17 20.5t7 19t1.5 9.5t2.5 -1t0.5 -1t-4.5 8.5q-26 -9 -47 -19.5t-49 -10.5
q-16 0 -38.5 2t-37.5 -2q5 -14 11.5 -26.5t6.5 -29.5q0 -22 -5 -43t-5 -39v-16q0 -19 -5 -32t-13 -22.5t-19 -16.5t-23 -15q-26 -17 -54.5 -29.5t-73.5 -12.5q-18 0 -27 10t-23 18q-24 13 -41 28t-28 35t-16 46.5t-5 64.5q0 35 16.5 67t35.5 51q6 6 15.5 9.5t16.5 8.5
q7 6 12.5 12.5t12 12.5t15 9.5t20.5 3.5q19 0 39.5 -5t41.5 -11t41.5 -11t41.5 -5h158q26 0 45.5 8t40.5 16l62 22q11 -4 12.5 -6t1.5 -18zM829 127q0 -11 -4.5 -31t-9.5 -28q-8 -12 -23 -21.5t-27 -17.5q-13 -9 -25.5 -19t-26.5 -18.5t-30.5 -14.5t-38.5 -6q-28 0 -56.5 12
t-51.5 31.5t-37.5 45t-14.5 52.5q0 30 6.5 56t12.5 52q5 20 5.5 37t8.5 32q11 22 27.5 32.5t36.5 15t44 6.5t50 8q13 -6 26 -9.5t25.5 -7t24 -8.5t22.5 -14q13 -12 23.5 -33.5t17.5 -47t11 -53t4 -51.5z" />
    <glyph glyph-name="ampersand" unicode="&#x26;" horiz-adv-x="864" 
d="M854 508q0 -7 -5.5 -16t-13 -19t-14 -19t-9.5 -16q-4 -9 -5.5 -14.5t-3 -9.5t-4.5 -7t-10 -7q-8 -7 -14 -12t-15 -12q-10 -8 -24 -12.5t-27 -10.5t-22 -16t-9 -27q0 -7 3 -13.5t7 -13.5t7 -15.5t3 -19.5q0 -10 -5.5 -20t-8.5 -18q-5 -17 -4 -30.5t-4 -27.5
q-3 -11 -10.5 -15.5t-15.5 -12.5q-6 -7 -7 -14.5t-7 -15.5q-11 -11 -28.5 -27t-31.5 -23q-9 -4 -17.5 -12t-17.5 -16.5t-18 -15t-19 -6.5h-32q-17 0 -27.5 -6t-26.5 -8q-27 -4 -48.5 -6t-45.5 -4l-86 12q-14 14 -34 29.5t-34 26.5q-20 16 -41 30t-39 32q-6 6 -8.5 14
t-4.5 17t-4 17.5t-7 14.5q-14 17 -14 38v53q0 16 5.5 31t13.5 28.5t17.5 24t17.5 16.5q5 2 14.5 7.5t13.5 10.5q3 4 1 8.5t1 7.5q4 4 10 5.5t11 3.5t9 6t4 15q0 9 -6 12t-10 8q-10 10 -18 20.5t-8 27.5q0 11 -3 22.5t-1 19.5q6 28 11 45t17 37q11 17 35 32t41 26q9 6 23 9.5
t30 5.5t31.5 2.5t27.5 0.5q13 0 26.5 -7t26 -16.5t23 -20.5t18.5 -18q7 -7 13.5 -11.5t6.5 -20.5q0 -8 -2 -19t-5.5 -21.5t-8.5 -18t-12 -7.5q-16 0 -26.5 6t-19 13.5t-18 14t-24.5 6.5q-7 0 -13.5 -5t-12 -13t-9 -17.5t-3.5 -18.5q0 -14 7 -21.5t17 -11t21.5 -5.5t20.5 -6
q8 -3 19 -5t11 -15q0 -11 -5.5 -15t-12.5 -9q-6 -5 -11.5 -9.5t-12.5 -8.5q-4 -2 -10 -2.5t-12.5 -0.5t-12 -1.5t-9.5 -5.5q-5 -7 -6 -14t-4 -18q-2 -6 -9 -9t-11 -9q-5 -8 -4.5 -18t0.5 -20q0 -6 -1.5 -16t1.5 -16q6 -11 18.5 -19t17.5 -19q7 -17 11 -29t13 -23
q8 -10 18 -12t20 -10q16 -10 29 -15t41 -5q18 0 28.5 2t18 5t14.5 7t17 8q8 3 17.5 6.5t17.5 8.5t13.5 12.5t5.5 18.5v16q0 15 3 26t3 28q0 8 -6 19t-8 17q-14 -2 -23.5 -4t-26.5 -2q-39 0 -57.5 8.5t-18.5 35.5q0 12 7.5 26.5t12.5 22.5q6 8 7 22.5t7 24.5q8 12 21.5 14.5
t30.5 5.5h56q18 4 32.5 8.5t27 9l25 9t27.5 7.5h66q21 4 40.5 9t36.5 5q9 0 12 -1.5t3 -10.5z" />
    <glyph glyph-name="quotesingle" unicode="'" horiz-adv-x="206" 
d="M168 628q0 -7 -2 -11t-5 -7t-5.5 -6.5t-3.5 -9.5q-4 -21 -4 -39t-4 -39q-5 -32 -11.5 -57t-6.5 -61q-14 2 -25 4t-25 6q0 19 -5 32t-5 32v44q0 26 -8.5 48t-15.5 48q-2 8 -8 16t-6 18q0 14 10.5 32.5t15.5 29.5q3 8 2.5 13.5t3.5 12.5q2 4 6 7t10 3q8 0 20.5 -2.5
t25 -6.5t23 -9t15.5 -10q4 -4 6 -16t2.5 -26.5t0 -27t-0.5 -18.5z" />
    <glyph glyph-name="parenleft" unicode="(" horiz-adv-x="492" 
d="M470 -212q0 -13 -7 -14.5t-23 -1.5q-32 0 -62 12.5t-52 23.5q-11 6 -29.5 5.5t-30.5 6.5q-8 4 -14 15.5t-12 16.5q-26 20 -42.5 44.5t-33.5 53.5q-12 20 -25.5 39.5t-25 42t-18.5 48.5t-7 60v48q0 8 -3 13.5t-6 10.5t-6 10.5t-3 13.5q0 10 5 18.5t5 21.5q0 14 -4 24.5
t-4 27.5t6 26.5t10 21.5q5 16 7 32.5t7 31.5q6 18 22.5 33.5t27.5 30.5q21 29 42.5 63t47.5 57q10 8 24 12t26 10l124 60q10 -3 19.5 -6.5t17 -9t12.5 -14.5t5 -24q0 -17 -9.5 -28t-23 -19t-28 -14t-25.5 -13q-16 -11 -22 -23.5t-12 -30.5t-14 -34.5t-14.5 -34.5t-11 -38.5
t-4.5 -46.5q0 -11 4 -22.5t4 -19.5q0 -10 -8 -18t-8 -22t5 -24.5t5 -25.5q0 -17 -6 -42t-6 -42q0 -10 5 -15.5t5 -16.5v-48q0 -10 -1.5 -22t1.5 -24t8.5 -23t5.5 -25v-16q0 -15 12.5 -27t23.5 -23q5 -5 8 -13t8 -13q7 -8 19 -15.5t26 -14.5t28 -12t25 -8v-50z" />
    <glyph glyph-name="parenright" unicode=")" horiz-adv-x="492" 
d="M413 150q0 -18 -3 -29.5t-7.5 -20.5t-9 -17.5t-8.5 -18.5q-8 -24 -7 -45t-7 -41q-5 -13 -14.5 -24t-20.5 -21.5t-22.5 -20t-20.5 -18.5q-20 -20 -36 -41t-42 -37q-18 -11 -34.5 -15.5t-34 -6t-36.5 -2.5t-41 -6q-10 -2 -20.5 -12t-21.5 -10q-5 0 -9.5 6.5t-8.5 15.5
t-6 18.5t-2 15.5q0 2 6.5 7.5t7.5 6.5q7 5 9.5 12t10.5 10q13 5 25 4t23 4q12 5 17 16.5t13 21.5q10 13 21.5 19t22.5 17q5 5 9.5 16.5t7.5 24.5t5 26.5t2 22.5v24q0 17 0.5 35.5t3.5 36.5q2 15 8 27t6 25q0 9 -5 24.5t-7 25.5v56l-10 66l6 60q-2 10 -2 26t-4 26q-3 7 -4 8
t-2 0t-2.5 -0.5t-5.5 6.5q-11 19 -14.5 37t-13.5 35q-8 13 -21 22t-27 16.5t-27.5 16t-22.5 21.5q-5 7 -12.5 13.5t-7.5 18.5q0 20 17 31t37 11q9 0 20.5 -3.5t22.5 -8t21 -9.5t16 -7q29 -10 41.5 -16t20 -12t17 -13.5t33.5 -20.5q4 -2 14 -13t21.5 -24t21.5 -24.5t13 -14.5
q6 -6 14 -20t15 -29.5t12.5 -30.5t6.5 -24q3 -16 8 -30.5t10.5 -28.5t9.5 -29.5t4 -33.5q0 -16 -6 -26.5t-6 -29.5q0 -14 2 -25l4 -22t4 -23t2 -28z" />
    <glyph glyph-name="asterisk" unicode="*" horiz-adv-x="500" 
d="M450 535l-1 -1l-5 -4l-8 -5l-9 -5l-34 -19l-39 -5q-13 -2 -28.5 -7t-25.5 -12l-6 -9q0 -7 5.5 -11.5t13.5 -5.5l24 -3l15 -2l13 -3q4 -1 7 -2t7 -2q2 0 3.5 -0.5t2.5 -0.5q2 0 4 -1l27 -17l20 -9l13 -10l-3 -13l-13 -22l-15 -23l-10 -8l-12 -2q-2 0 -5 0.5t-10 1.5
q-5 0 -8 3l-8 4l-9 4q-2 2 -4 3q-2 0 -3 3l-53 68l-16 10l-12 -3q0 -11 1 -12l1 -11v-8l5 -9l8 -23l4 -20l9 -24l1 -37l1 -16v-1q0 -8 -5.5 -10t-22.5 -4l-22 -2h-3q-23 0 -33 8t-10 25q0 2 0.5 3.5t0.5 3.5l1 5l3 26q0 4 0.5 6.5t0.5 5.5q1 5 1 6t2 3l21 53v4l1 7v4v4v1v3
v3t2 6v4h-8q-3 0 -5 -1q-2 0 -3.5 -0.5t-2.5 -0.5q-6 -3 -8 -5l-8 -6l-15 -22l-25 -29q-41 -48 -71 -51l-11 9l-19 30l-12 16q0 8 2 13t5 11l16 11l13 12l20 7l25 14q5 1 9.5 1.5t12.5 1.5q32 1 47 13l7 7v4q0 4 -2 6q-2 1 -2.5 2t-2.5 2q-6 1 -8 3q-8 1 -12.5 1.5
t-20.5 2.5l-20 3q-29 5 -50 12t-41 22l-8 13l3 4l2 7l1 10l7 16q0 1 1 1q0 2 3 5l3 9q5 8 8.5 11.5t9.5 6.5q18 -2 40 -11t36 -20q6 -4 5 -4q4 -2 7 -5l3 -4l8 -15l19 -19l25 -29l8 -2l6 -2l9 11l-1 4l-8 23l-6 31l-12 14l-2 6l-3 18l-3 15l-2 10q0 3 -0.5 6t-0.5 7
q0 26 9 35t38 9h24q15 0 21.5 -6t6.5 -24v-13.5t-2 -12.5q-2 -15 -5 -27t-6 -17l-10 -17q-1 -1 -1 -3.5t-2 -6.5q-1 -2 -1 -6l-3 -29l-2 -14l9 -1l11 7l46 60l6 5l8 6l10 6l14 7l10 2q3 2 6 2l8 2h1l2 -1l8 -4q3 0 5 -2t4 -3t2 -3l10 -16l17 -21l4 -11z" />
    <glyph glyph-name="plus" unicode="+" horiz-adv-x="834" 
d="M724 270q0 -9 -10.5 -14t-17.5 -10q-17 -10 -40.5 -11t-49.5 -1q-23 0 -40.5 3t-43.5 3q-21 0 -30.5 -6t-9.5 -28v-24q0 -13 -2 -21.5t-10 -18.5l8 -18q-2 -11 -2.5 -25.5t0 -29t1.5 -27t1 -20.5q0 -26 -14.5 -32t-43.5 -6q-13 0 -26.5 3.5t-24 10.5t-17 17t-6.5 23
q0 9 6 22.5t10 21.5v50q-3 14 -6.5 26.5t-3.5 31.5v26q0 5 -8 10t-18.5 9.5t-22 7.5t-17.5 3q-29 0 -57 -10t-61 -10q-6 0 -15.5 3t-16.5 5q-6 17 -12 28t-6 34q0 26 7 41t20 23t32 10t43 2q20 0 37 -7t39 -7q25 0 44.5 11.5t19.5 40.5q0 13 -2 23.5l-4 21t-4 22t-2 25.5
q0 8 3 17t5 17q2 10 3.5 25t6.5 23q4 6 14.5 9t23.5 4t26 1h22q10 0 20 -13t14 -21v-98q4 -26 -1 -47.5t-5 -46.5q0 -5 0.5 -10.5t5.5 -5.5q31 0 63.5 4t66.5 4q28 0 50.5 -2.5t39.5 -13.5q6 -4 5.5 -10t0.5 -16q2 -14 7 -25t5 -27z" />
    <glyph glyph-name="comma" unicode="," horiz-adv-x="330" 
d="M276 1l-2 -30l-6 -22l-8 -12l-16 -32q-7 -14 -16.5 -24.5t-23.5 -21.5q-8 -5 -13 -7.5t-12 -5t-17 -5l-26 -6.5l-18 -4h-8q-50 0 -50 26q0 12 7.5 20.5t24.5 17.5l24 10q27 11 44.5 30t17.5 34v10v8l-2 8h-24l-28 4q-29 4 -45.5 20.5t-26.5 49.5l-8 28l-2 12v4q0 12 8 28
t20 28q36 36 90 36q36 0 60 -14t30 -40l2 -8l10 -14l8 -16v-2v-10q2 -5 2 -6.5v-3.5q2 -5 2 -6v-4l2 -22l2 -12v-12v-12v-12z" />
    <glyph glyph-name="hyphen" unicode="-" horiz-adv-x="380" 
d="M350 300q0 -17 -7 -27.5t-15 -19.5t-15 -18.5t-7 -24.5q0 -10 1.5 -10t3.5 2t3.5 1.5t1.5 -11.5q0 -8 -7 -8h-15q-21 0 -36.5 3t-39.5 3q-20 0 -36.5 -5t-29.5 -5q-2 0 -6.5 0.5t-9.5 1.5l-14 2h-54q-26 4 -31 18t-5 42q0 12 3 17t5 15t3 23.5t3.5 25.5t8 20.5t17.5 8.5
t21.5 -2t19 -5t20.5 -5t25 -2q17 0 31 2.5t27.5 5.5t29 5.5t36.5 2.5q23 0 36.5 -0.5t20.5 -5.5t9 -16.5t2 -33.5z" />
    <glyph glyph-name="hyphen" unicode="&#xad;" horiz-adv-x="380" 
d="M350 300q0 -17 -7 -27.5t-15 -19.5t-15 -18.5t-7 -24.5q0 -10 1.5 -10t3.5 2t3.5 1.5t1.5 -11.5q0 -8 -7 -8h-15q-21 0 -36.5 3t-39.5 3q-20 0 -36.5 -5t-29.5 -5q-2 0 -6.5 0.5t-9.5 1.5l-14 2h-54q-26 4 -31 18t-5 42q0 12 3 17t5 15t3 23.5t3.5 25.5t8 20.5t17.5 8.5
t21.5 -2t19 -5t20.5 -5t25 -2q17 0 31 2.5t27.5 5.5t29 5.5t36.5 2.5q23 0 36.5 -0.5t20.5 -5.5t9 -16.5t2 -33.5z" />
    <glyph glyph-name="period" unicode="." horiz-adv-x="330" 
d="M274 85q0 -32 -12 -62l-14 -10l-8 -8q-9 -9 -29 -13.5t-47 -4.5q-48 0 -79 32.5t-31 83.5v10v16q0 9 8 19t20 15l10 4l30 18l10 4l14 4h14l20 4l8 2l4 -2l6 -2l10 -4l22 -14l20 -10l10 -16q6 -9 10 -28.5t4 -37.5z" />
    <glyph glyph-name="slash" unicode="/" horiz-adv-x="278" 
d="M294 674q0 -9 -0.5 -21t-1.5 -25t-3 -25.5t-5 -20.5q-8 -17 -18.5 -36t-15.5 -38q-11 -35 -13 -70.5t-13 -67.5q-7 -21 -16 -40t-16 -40q-3 -10 -4.5 -18.5t-2 -17t-1 -17.5t-2.5 -21q-6 -32 -15 -64.5t-19 -61.5q-11 -32 -18 -64t-14 -66q-3 -13 -3 -21t-1 -14
t-5.5 -10.5t-14.5 -10.5h-68q-6 4 -13 6.5t-13.5 6.5t-11 9.5t-4.5 15.5q0 14 5.5 28.5t13 28l15 27t10.5 26.5q5 21 6 37.5t6 34.5q13 47 26 96.5t16 97.5q1 22 7.5 42.5t14 40.5t14.5 39.5t10 39.5q3 23 10.5 47.5t15.5 44.5t13 40t13 42q2 6 3 17.5t5 16.5
q13 15 33.5 17.5t46.5 2.5q18 0 23 -9t5 -25z" />
    <glyph glyph-name="zero" unicode="0" horiz-adv-x="678" 
d="M424 296q0 38 -4 78t-18 66q-5 10 -7 23.5t-3.5 27t-4 25.5t-9.5 20t-14.5 9t-19.5 5q-4 1 -6 3.5t-3.5 5.5t-4 5t-6.5 2q-12 0 -24 -8.5t-21 -20.5t-15 -26.5t-6 -26.5q0 -11 4 -17.5t4 -16.5q0 -18 -4 -31t-4 -27v-32q0 -10 -3 -16.5t-3 -15.5q0 -26 5 -43.5t15 -32.5
v-44q0 -16 4.5 -26.5t11 -18.5t14 -14t14.5 -13q5 -5 10.5 -14.5t17.5 -9.5q13 0 23.5 6t19 15t14.5 19.5t11 19.5q-6 3 -6.5 4.5t1 3.5t3.5 4.5t2 7.5q0 11 -3 13.5t-3 10.5t3 12.5t3 11.5v24q0 8 6 14t6 18zM636 292v-56q-5 -6 -12.5 -10.5t-7.5 -17.5v-16q0 -12 -2 -31
t-10 -25q-10 -8 -18 -23.5t-16 -24.5q-9 -11 -14.5 -18.5t-12 -13t-16 -9.5t-27.5 -7q-13 -2 -19.5 -7.5t-11.5 -12.5t-10.5 -13.5t-14.5 -10.5q-12 -5 -27.5 -4.5t-30.5 -1.5q-11 -2 -26.5 -7t-25.5 -5q-11 0 -30.5 2t-31.5 4q-13 2 -18.5 4.5t-17.5 7.5q-11 4 -20 15
t-20 13q-5 1 -12 -0.5t-12 0.5q-14 5 -22.5 17t-19.5 19q-7 5 -15 13t-13 15q-7 8 -10.5 21.5t-7.5 24.5q-2 8 -7.5 16.5t-11 17.5t-9.5 18t-4 18q0 6 3 11.5t3 16.5q0 6 -7.5 21t-10.5 23q-8 20 -5 46t7 48l-8 60q10 28 22.5 45.5t21.5 40.5q8 19 13 35.5t13 30.5
q12 19 38 38t46 32q33 20 68 30t88 10q13 0 24 -4.5t20 -7.5q21 -7 43.5 -9.5t44.5 -8.5q11 -3 17.5 -8t12 -10.5t10 -11.5t10.5 -12q4 -3 12.5 -6.5t17.5 -8t15.5 -10t6.5 -13.5v-16q0 -12 9 -17t13 -13q4 -7 8.5 -17t9 -21.5t7.5 -22t3 -19.5v-24q0 -18 7 -30.5t7 -29.5
v-70z" />
    <glyph glyph-name="one" unicode="1" horiz-adv-x="464" 
d="M446 4q0 -5 -9 -6.5t-15 -1.5h-58q-13 0 -25.5 4t-32.5 4q-26 0 -43.5 -5t-38.5 -5q-17 0 -26.5 1t-18 2.5t-18.5 3t-27 1.5t-38.5 -2t-41.5 -2q-15 0 -20.5 7.5t-5.5 20.5q0 9 2 19.5t8 14.5q14 8 23.5 15.5t30.5 14.5q10 3 14.5 8t7 10.5l5 11t7.5 10.5q5 4 5.5 9.5
t0 11.5t-1 12.5t1.5 14.5q2 9 8 16.5t6 19.5t-4 20t-4 22v156q0 4 5 9.5t5 14.5q0 10 -1 28t-5 24t-13.5 15.5t-14.5 12.5t-12 2t-14 0q-25 3 -45.5 17.5t-20.5 40.5q0 10 11 16.5t26 11t29.5 8t21.5 6.5q20 10 38.5 15.5t39.5 16.5t49.5 22t54.5 20q14 5 28 6.5t32 1.5
t21 -9.5t3 -26.5q0 -12 -4 -25t-9 -27t-9 -28.5t-4 -29.5v-16q0 -14 -2 -24.5t-4 -19.5t-4 -18.5t-2 -21.5q0 -13 3 -22t3 -20v-148q0 -9 0.5 -23t1.5 -28.5t2.5 -29t3.5 -25.5q2 -7 2.5 -17t3.5 -15q10 -16 25.5 -28t29 -24.5t23.5 -28.5t10 -41z" />
    <glyph glyph-name="two" unicode="2" horiz-adv-x="580" 
d="M538 212q0 -12 -6 -22.5t-6 -25.5q0 -10 3 -20.5t3 -23.5q0 -14 -7 -24t-7 -16v-24q0 -12 -2 -24t-6.5 -21.5t-13 -16t-20.5 -6.5q-15 0 -23.5 6t-26.5 6l-306 2l-64 -8q-16 -2 -33 2.5t-17 21.5q0 8 5.5 13.5t8.5 10.5q7 11 10.5 26.5t13.5 23.5q13 12 22.5 16.5
t17.5 21.5q9 17 20.5 31t24 26.5t25.5 25t24 25.5q23 26 42.5 52t39.5 56q6 8 13 17.5t11 20.5q8 23 8.5 50t3.5 48q-6 2 -14 7t-15 10q-9 6 -17 14q-9 3 -20 6q-9 2 -20 4.5t-22 2.5q-5 -2 -15.5 -2.5t-16.5 -3.5q-11 -6 -18 -17.5t-20 -16.5q-8 -3 -16.5 -8t-15.5 -10
q-10 -6 -16.5 -12t-23.5 -6q-5 0 -8.5 5.5t-6 13t-4 15t-1.5 12.5q0 9 4 15.5t9 12.5t10.5 12t8.5 14q5 12 6 25t8 25q6 10 19.5 14t20.5 12q17 19 34 29.5t36 16.5t41 9.5t49 8.5h54q18 -9 37.5 -14t36.5 -10q26 -8 37.5 -17.5t22.5 -30.5q3 -7 9 -16l12 -18q7 -11 15 -21
q4 -16 8 -31q3 -14 5.5 -28.5t2.5 -25.5t-9 -18.5t-9 -13.5v-16q0 -7 -4 -11.5t-4 -14.5q-3 -5 -6 -9q-2 -2 -4 -6q-1 -2 -2 -3q-5 -11 -7.5 -21.5t-10.5 -18.5q-14 -17 -31 -27t-29 -29q-11 -17 -31.5 -28.5t-40.5 -21.5q-6 -3 -12.5 -10t-13.5 -15t-12.5 -16t-9.5 -13
q12 -1 16.5 -0.5t15.5 0.5q12 0 23 -3t19 -3h60q14 8 32.5 14t31.5 16q5 4 8.5 9.5t8 10.5t10.5 8.5t15 3.5q14 0 18 -8t4 -22z" />
    <glyph glyph-name="three" unicode="3" horiz-adv-x="600" 
d="M552 180v-44q0 -11 -8 -22.5t-14 -17.5q-10 -10 -17.5 -20.5t-15 -20.5t-16.5 -19.5t-21 -17.5q-10 -6 -26 -13t-33.5 -13t-35 -10t-29.5 -4h-74q-26 0 -46 1.5t-37.5 5.5t-33 9.5t-33.5 13.5q-8 3 -18.5 10t-21 14.5t-20 15t-14.5 12.5q-6 6 -11 19t-9 28t-6 30.5
t-2 26.5q0 6 4 14t10 15t13 12t13 5h36t28 -8q5 -5 10.5 -8.5t10.5 -5.5q6 -3 13 -4q1 -9 4 -15q3 -12 8 -17q12 -17 23 -27.5t37 -10.5q6 0 16.5 0.5t21.5 2.5q12 2 25 4l38 48l2 28q1 11 2 24t1 23q0 6 -4.5 15t-10.5 17.5t-12 15.5t-9 10q-10 7 -17.5 13t-16 10.5
t-19.5 6.5t-29 2h-18q-14 4 -19.5 8.5t-12.5 15.5q8 8 20 21.5t22 16.5q18 6 37.5 8t36.5 10q9 4 7.5 8t0.5 14q2 11 9 20t7 26q0 13 -7.5 17.5t-12.5 12.5q-7 10 -12.5 18t-13 13.5t-19 8t-29.5 2.5q-3 0 -10.5 -1t-15.5 -3t-15 -4t-9 -4q-8 -8 -17 -17.5t-17 -18.5
q-5 -6 -9 -15t-9 -16.5t-12 -13t-18 -5.5q-14 0 -19.5 2.5t-7.5 7t-3.5 11t-7.5 13.5q-5 6 -0.5 21.5t4.5 28.5q0 22 5 33.5t13 24.5q23 36 55.5 54.5t70.5 37.5q8 2 19 3t17 1q17 0 27.5 0.5t19 0.5t17.5 -1t24 -4q16 -3 31 -4t28.5 -2t26 -4t24.5 -10q7 -4 17 -12.5
t20.5 -18.5t20 -19.5t14.5 -15.5q4 -6 11.5 -14.5t14 -18t11.5 -20t5 -19.5v-80q0 -13 -10.5 -20.5t-22.5 -14t-22.5 -16t-10.5 -25.5q0 -3 4.5 -5.5t10.5 -5t11 -4.5t6 -3q17 -14 31.5 -27.5t20.5 -38.5q7 -28 8.5 -57t3.5 -61z" />
    <glyph glyph-name="four" unicode="4" horiz-adv-x="662" 
d="M354 478q-18 -14 -29 -33t-29 -31q-20 -13 -38.5 -24t-33.5 -28q-11 -12 -14.5 -24t-11.5 -26q-5 -8 -15.5 -12t-14.5 -18q3 -2 10.5 -3.5t15.5 -3t15.5 -2.5t10.5 -1h68q5 0 11.5 -4t12.5 -4q5 0 10.5 5t7.5 7q13 9 17.5 14t4.5 26zM628 208q0 -13 -6.5 -29.5
t-15.5 -20.5q-7 -3 -15.5 -2.5t-16.5 0.5t-14.5 -1.5t-9.5 -8.5q-2 -4 -2.5 -11t-0.5 -15t0.5 -14.5t0.5 -9.5q0 -15 5 -28t5 -30q0 -14 -3 -28.5t-11 -21.5l-52 10q-8 -1 -20.5 -2.5t-26 -3t-25.5 -3t-18 -1.5q-11 0 -23 -1t-22 1t-16.5 8t-6.5 20q0 11 2 18t4 16v32
q0 26 -14 43t-40 21q-10 2 -16.5 2.5t-11.5 1.5l-10 2q-20 0 -37 3t-29 3h-76q-17 0 -27.5 0.5t-16.5 4.5t-8 13t-2 26q0 4 -4.5 9t-9.5 10t-8.5 9.5t-1.5 7.5q11 17 26.5 33.5t25.5 32.5q11 17 23 26t21 24q6 9 14 20.5t17 23t18 21.5t17 17q10 8 19.5 14t18.5 16
q29 34 62 62q18 16 32.5 33t33.5 33q8 8 21 18t21 18q9 9 18.5 21.5t21 23.5t24.5 19t30 8q18 0 35 -6.5t23 -21.5t3 -22t-3 -12q0 -14 3 -28t3 -30q0 -38 -4 -76.5t-4 -67.5v-132q0 -7 4 -14.5t10 -13.5t13.5 -10t14.5 -4h24q5 0 8 -7t4.5 -16t1.5 -18.5v-14.5z" />
    <glyph glyph-name="five" unicode="5" horiz-adv-x="572" 
d="M532 176q0 -23 -13.5 -40.5t-24.5 -31.5q-18 -21 -30.5 -37t-37.5 -31q-11 -7 -27 -9t-29 -7q-12 -4 -22 -11t-21 -13.5t-22.5 -11t-26.5 -4.5h-74q-11 0 -25 2.5t-28.5 6t-27 8t-21.5 7.5q-14 5 -24.5 4.5t-23.5 7.5q-9 6 -18 21t-16 33.5t-11.5 38t-4.5 33.5
q0 36 21.5 48t58.5 12q19 0 23.5 -10.5t12.5 -21.5q12 -16 23.5 -24.5t26.5 -21.5q5 -5 9 -10.5t8.5 -11t10.5 -9t14 -3.5q9 0 22 4t25.5 10t22.5 12.5t14 11.5q8 9 11 23.5t7 26.5q2 5 7 12.5t5 13.5q0 26 -13 47.5t-34 37.5t-47.5 24.5t-53.5 8.5h-24q-6 0 -11.5 6
t-14.5 6q-5 0 -8.5 -2t-6.5 -5t-6.5 -5t-10.5 -2t-13 2t-11 4q1 12 3.5 21t4.5 19v50l-12 46q3 10 6.5 18.5t3.5 21.5q0 9 -4 16t-4 10q0 12 5 21.5t7 20.5q1 12 1 24t0.5 22.5t3 19.5t9.5 16q6 6 20.5 11.5t32 9t35 5t30.5 0.5l106 -6q9 -1 26 -0.5t22 0.5q17 0 36 -2.5
t36 -3.5h16.5t21 -0.5t18.5 -2.5t8 -7q0 -16 -5 -24.5t-12 -14t-15.5 -10.5t-15.5 -13q-9 -10 -13.5 -23.5t-14.5 -24.5q-11 -11 -30 -13.5t-38 -4.5q-18 -2 -38 -10t-40 -8q-15 0 -27 4t-29 4q-9 0 -16.5 -5.5t-13.5 -14t-9 -18t-3 -16.5q0 -10 10.5 -14t21.5 -4h58
q12 0 21.5 -1.5t22.5 -4.5l70 -8q22 -6 36 -14t24.5 -18.5t20 -22t23.5 -23.5q10 -8 17.5 -15t10.5 -21q5 -23 6 -38t6 -34v-70z" />
    <glyph glyph-name="six" unicode="6" horiz-adv-x="636" 
d="M412 236q0 25 -9.5 38t-18.5 28q-6 10 -10.5 20t-11 17.5t-16.5 12t-28 4.5q-54 0 -52 -62q1 -15 -3.5 -30.5t-4.5 -29.5q0 -6 1 -15.5t3 -18.5q2 -11 5 -22q6 -6 10 -11t7.5 -10t5.5 -9q6 -12 11.5 -24t22.5 -12q14 0 18 4t18 4q2 0 14 1.5t14 2.5q3 2 4.5 14.5
t3.5 17.5q5 20 10.5 38t5.5 42zM604 276q0 -20 -5 -35.5t-7 -32.5q-2 -26 -2 -46.5t-8 -41.5q-4 -10 -9.5 -9t-12.5 -5q-10 -8 -17 -25.5t-15 -26.5q-11 -13 -26.5 -16.5t-31.5 -11.5q-26 -13 -56.5 -27.5t-65.5 -14.5q-11 0 -20 0.5t-17.5 0.5t-17.5 0.5t-21 0.5
q-10 0 -20 5t-18 5q-12 0 -17 1t-7.5 3.5t-5.5 7t-10 12.5q-6 6 -17 10.5t-17 9.5q-20 15 -30.5 29t-27.5 31q-8 8 -19.5 16t-18.5 18q-12 18 -16 50t-4 62v104q0 18 8.5 40t13.5 36q5 16 9 31.5t9 32.5q4 10 14 20q5 5 12 11l16 35l30 24q5 8 10 15q5 6 9 12t9 9
q31 23 68 45t72 29q9 4 19 4.5t20 0t20 0t19 3.5q11 5 19 11.5t25 6.5q10 0 24.5 -1t27 -4.5t21.5 -10.5t9 -18q0 -8 -6.5 -14.5t-15.5 -11.5t-18.5 -9t-15.5 -7q-7 -4 -9 -10.5t-7 -11.5q-8 -8 -19.5 -13t-24 -9.5t-24.5 -10t-20 -13.5q-17 -17 -37.5 -27.5t-34.5 -32.5
q-8 -12 -16.5 -21.5t-13.5 -24.5q-2 -4 -3.5 -14t3.5 -10q12 0 20 4.5t16 9.5q13 8 38 13t42 5q24 0 46.5 1t45.5 -7q15 -5 25 -7t17 -5t13.5 -7.5t14.5 -14.5q17 -19 29 -51t19 -67q2 -10 7 -18t5 -22z" />
    <glyph glyph-name="seven" unicode="7" horiz-adv-x="566" 
d="M581 640q0 -21 -12.5 -33t-19.5 -23q-4 -5 -1.5 -12t-0.5 -12q-2 -2 -11 -8.5t-11 -11.5q-16 -29 -25 -54.5t-20 -55.5q-1 -3 -5 -13t-8 -13q-3 -2 -7 -3t-8 -2.5t-6.5 -5t-2.5 -11.5v-26q0 -6 -1.5 -8.5t-3.5 -3.5t-4 -2.5t-4 -7.5q-11 -34 -17.5 -61t-19.5 -55
q-7 -15 -11.5 -35t-8 -40t-8.5 -40t-13 -35l-8 12v-88q-2 -5 -3.5 -13.5t-4 -16.5t-6.5 -14t-10 -6q-3 0 -13.5 0.5t-22 2t-22.5 4t-16 5.5t-8 8t-7.5 10t-10.5 8.5t-17 3.5q-18 0 -27 1t-15 4t-10 9t-11 16q-4 7 -10.5 11.5t-6.5 18.5t4.5 23.5t12.5 16.5l18 10v36
q0 6 9.5 15t14.5 15q8 12 13.5 28.5t14.5 27.5q7 8 18 20.5t22.5 26t20 27.5t10.5 26q2 15 7 25t12 18t15.5 14.5t17.5 14.5q8 8 10.5 19.5t8.5 20.5q11 16 21 27.5t18 34.5l-13 6.5t-15 3.5q-13 0 -25 -6t-31 -6q-17 0 -29 6t-27 6q-42 0 -76 -10.5t-60 -25.5q-6 -3 -8 -8
t-3.5 -10.5t-3.5 -10.5t-7 -9q-2 -2 -9 -3t-15 -1.5l-16 -1t-12 -0.5q-1 0 -2.5 4t-3 9.5t-2.5 11t-1 7.5q0 8 3 14.5t7 13.5t7 14.5t3 17.5v32q0 22 5.5 40.5t5.5 41.5v24q0 13 4.5 21t10.5 19q11 -1 19.5 2t19.5 0q7 -2 8 -3.5t0.5 -3l-1 -3t5.5 -4.5q9 -5 18.5 -2.5
t15.5 -1.5q10 -5 17.5 -14.5t23.5 -9.5q14 0 20.5 6.5t14.5 11.5t20 4.5t25 -0.5q24 0 42 -3t38 -3q11 0 21 5t27 5q15 0 26.5 -3t24.5 -3q20 0 35.5 3t38.5 3q20 0 31.5 -10t11.5 -26z" />
    <glyph glyph-name="eight" unicode="8" horiz-adv-x="602" 
d="M384 170q0 21 -5 31.5t-13 16.5t-18 11t-20 15q-7 7 -17 16.5t-23 9.5h-16q-6 0 -7 1t-1 2.5t-1 3t-7 1.5t-8.5 2t-5 5t-5.5 5t-11 2q-11 0 -15 -9t-9 -17q-6 -9 -12.5 -19t-10.5 -21.5t-2.5 -23.5t11.5 -26q1 -2 3.5 -8t5.5 -12.5t6.5 -12t6.5 -7.5q5 -3 12.5 -3
t13.5 -3q8 -4 12.5 -10t10 -11t12.5 -9t19 -4q17 0 35.5 8t32.5 20q2 2 4 6.5t4 9.5t2 11q4 2 8 6q8 8 8 13zM382 498q0 13 -8.5 26t-21 22.5t-28 15.5t-30.5 6q-27 0 -44.5 -21t-17.5 -47q0 -10 6.5 -18.5t11.5 -13.5q7 -6 12 -11t10.5 -8.5t13.5 -5.5t22 -3l28 -8
q1 1 3.5 1.5t4.5 2.5q3 1 5 3l6 15l14 8l6 14q2 6 4.5 11.5t2.5 10.5zM574 198q0 -19 -0.5 -26.5t-2.5 -10.5t-6.5 -6t-12.5 -13q-3 -4 -6.5 -14t-7 -22t-7 -22t-5.5 -14q-13 -20 -33 -29.5t-43 -20.5q-18 -9 -32.5 -19.5t-39.5 -10.5q-5 0 -13.5 -3t-16.5 -3
q-10 0 -16.5 -2t-17.5 -2q-8 0 -18.5 -2t-27.5 -2q-19 0 -30.5 3.5t-23.5 6.5q-15 4 -24.5 7.5t-17 8t-14 9.5t-16.5 11q-11 7 -25.5 10.5t-22.5 11.5t-13 12t-8.5 7t-7 8t-9.5 15q-3 4 -8 14.5t-10.5 22.5t-9.5 22.5t-4 16.5q0 8 4 16t6 16q3 17 1.5 37t2.5 35q2 7 8 14.5
t13 13.5q8 7 17 14q3 5 6 9q4 7 10 13q5 5 16.5 9t11.5 11q0 5 -5 9.5t-11 9l-12 9t-8 8.5q-11 25 -24.5 49.5t-13.5 62.5q0 19 1.5 31.5t6.5 26.5q5 12 15.5 18.5t18.5 15.5q13 15 26 31t28.5 29t36 21.5t49.5 8.5q10 0 17.5 -1t16.5 1q2 5 5.5 8.5t12.5 3.5q6 0 14 0.5
t18 -0.5q17 -1 32 -2t26 -4q12 -3 19.5 -5.5t13.5 -5t13.5 -5.5t19.5 -6q19 -5 28 -16.5t20 -25.5q18 -20 35 -41t17 -59q0 -37 -8 -59t-22 -37q-10 -10 -22.5 -18t-23.5 -22q7 -7 16 -8t16 -8q6 -6 16.5 -15t20.5 -19.5t17.5 -21.5t7.5 -22q0 -15 3 -25.5t7 -20.5t7 -21
t3 -27z" />
    <glyph glyph-name="nine" unicode="9" horiz-adv-x="636" 
d="M378 410q0 4 -2 14q-1 4 -1 8l-4 21q-3 3 -5 7q-4 8 -4 14v24q0 10 -6 15.5t-13 10t-13 10t-6 14.5q0 6 -2 12t-8 6q-18 0 -42.5 -2.5t-43.5 -7.5l8 -24q0 -26 -6.5 -40t-15.5 -30q1 -7 4 -11.5t5.5 -8.5t4.5 -9t2 -13v-16q0 -15 5.5 -30.5t14.5 -27.5t21.5 -20t26.5 -8
q4 0 11 1t14.5 2.5t13.5 3.5t9 5q6 6 10 15t8 17q3 7 5.5 11t4.5 8.5t3 11t1 17.5zM590 380q0 -18 -5 -43.5t-7 -46.5q-1 -12 -1.5 -26t-6.5 -22q-2 -3 -6 -4.5t-6 -7.5q-2 -12 0 -26.5t-4 -25.5q-2 -4 -10.5 -7.5t-11.5 -8.5q-10 -16 -17.5 -31.5t-18.5 -32.5q-5 -7 -12 -5
t-12 -3t-5.5 -11t-8.5 -11q-4 -2 -15.5 -1.5t-18.5 -2.5q-5 -2 -4 -11t-2 -13q-5 -8 -14 -8t-20 -2q-8 -2 -11.5 -8t-10.5 -8q-8 -3 -14.5 -8.5t-17.5 -7.5q-14 -2 -23.5 -10t-26.5 -10l-74 -10q-6 -1 -17.5 -1.5t-24.5 -0.5h-24.5h-15.5q-3 0 -9.5 4.5t-13 10.5t-12 12
t-5.5 9q0 10 10.5 16t24.5 10t28 6.5t21 5.5q5 2 12 6.5t14 9.5q8 5 17 12l20 6q8 2 16 5t13 5q15 8 20 20.5t16 23.5q1 1 6.5 6t11 11t10.5 10.5t6 6.5q3 4 1.5 8.5t2.5 7.5q4 4 8.5 2.5t9.5 1.5q1 1 3.5 6.5t4 12.5t3 13t1.5 8q0 5 -9 7.5t-15 2.5q-8 0 -10.5 -9t-9.5 -13
q-19 -10 -39.5 -13t-50.5 -3q-10 0 -22 -1t-22 1q-15 3 -34.5 12.5t-31.5 17.5q-34 21 -52 46.5t-24 75.5q-2 15 -9 27.5t-7 32.5v68q0 8 2.5 12.5t6.5 8t7.5 7t5.5 8.5q3 8 1.5 15.5t0.5 16.5q7 32 26.5 50.5t41.5 35.5q4 3 12.5 10.5t18 15t18.5 13t15 5.5q3 0 13 -3
t15 -5q3 6 16.5 15t19.5 9h72q13 0 37.5 -2t38.5 -8q11 -5 19 -12.5t25 -7.5q7 0 14.5 -4.5t14 -10.5t12 -12.5t9.5 -10.5q5 -5 11 -5.5t13 -4.5q8 -5 7.5 -14t2.5 -18q3 -8 14 -22.5t16 -25.5q17 -33 26.5 -66.5t9.5 -83.5z" />
    <glyph glyph-name="colon" unicode=":" horiz-adv-x="330" 
d="M276 67q0 -17 -6.5 -26.5t-16.5 -15.5t-21.5 -11t-20.5 -12q-6 -5 -17.5 -13t-21.5 -8q-20 0 -34.5 12.5t-28.5 18.5q-9 4 -20.5 3.5t-18.5 6.5q-3 3 -6 11t-5.5 17t-4 17t-1.5 12q0 42 20 67.5t52 36.5q10 3 18.5 9t20.5 6q23 0 51.5 -10.5t58.5 -40.5q-2 -10 -4 -19
t-2 -20q0 -14 4 -22t4 -19zM276 418q0 -15 -3 -28t-3 -25q0 -5 -9 -10.5t-12 -7.5q-20 -12 -45 -20.5t-57 -8.5q-17 0 -27.5 4.5t-18 11.5t-13.5 15t-14 14t-16.5 13t-8.5 20q0 45 19.5 75t60.5 39l27 6q6 2 11.5 5t12.5 3q8 0 20 -3t23.5 -7.5t20 -10t10.5 -11.5
q3 -8 6.5 -20.5t5.5 -22.5q2 -9 6 -14.5t4 -16.5z" />
    <glyph glyph-name="semicolon" unicode=";" horiz-adv-x="330" 
d="M279 422q0 -14 -5 -29t-5 -26q0 -7 -5 -14t-12 -13t-16 -10t-16 -4h-17q-17 0 -29.5 -7.5t-27.5 -7.5q-5 0 -13 3t-11 6q-5 5 -16 12t-17 12q-12 11 -22.5 23.5t-10.5 33.5v47q0 9 6 18.5t9 14.5q16 4 27 12t23 15t27.5 12.5t40.5 5.5q19 0 35.5 -8.5t28.5 -23t19 -33.5
t7 -39zM279 46q0 -33 -5 -54t-12 -44t-22 -44.5t-31 -35.5q-11 -10 -27 -16t-30 -12q-5 -2 -11.5 -5t-14.5 -3q-6 0 -15.5 2t-19 5t-17.5 6.5t-12 6.5q3 6 8.5 20.5t10.5 18.5q10 8 28 11.5t29 8.5q10 5 16.5 16t10.5 21q2 5 7 11t5 12q0 10 -6.5 15.5t-14.5 8.5h-16
q-9 0 -22 3t-26 8t-22.5 12.5t-11.5 15.5q-2 6 0 12t0 12q-1 5 -4.5 7.5t-3.5 7.5v41q0 19 11 34t16 29q16 16 35.5 22t51.5 6q26 0 47 -15.5t36 -38.5t23.5 -51.5t8.5 -53.5z" />
    <glyph glyph-name="semicolon" unicode="&#x37e;" horiz-adv-x="330" 
d="M279 422q0 -14 -5 -29t-5 -26q0 -7 -5 -14t-12 -13t-16 -10t-16 -4h-17q-17 0 -29.5 -7.5t-27.5 -7.5q-5 0 -13 3t-11 6q-5 5 -16 12t-17 12q-12 11 -22.5 23.5t-10.5 33.5v47q0 9 6 18.5t9 14.5q16 4 27 12t23 15t27.5 12.5t40.5 5.5q19 0 35.5 -8.5t28.5 -23t19 -33.5
t7 -39zM279 46q0 -33 -5 -54t-12 -44t-22 -44.5t-31 -35.5q-11 -10 -27 -16t-30 -12q-5 -2 -11.5 -5t-14.5 -3q-6 0 -15.5 2t-19 5t-17.5 6.5t-12 6.5q3 6 8.5 20.5t10.5 18.5q10 8 28 11.5t29 8.5q10 5 16.5 16t10.5 21q2 5 7 11t5 12q0 10 -6.5 15.5t-14.5 8.5h-16
q-9 0 -22 3t-26 8t-22.5 12.5t-11.5 15.5q-2 6 0 12t0 12q-1 5 -4.5 7.5t-3.5 7.5v41q0 19 11 34t16 29q16 16 35.5 22t51.5 6q26 0 47 -15.5t36 -38.5t23.5 -51.5t8.5 -53.5z" />
    <glyph glyph-name="less" unicode="&#x3c;" horiz-adv-x="834" 
d="M722 554q0 -9 -3 -22.5t-7.5 -27t-10 -24.5t-11.5 -16q-11 -10 -28 -16.5t-34 -11.5q-25 -8 -46 -12t-44 -12q-14 -5 -25 -12t-21.5 -14.5t-22 -14t-25.5 -9.5q-35 -7 -62 -17t-56 -21q-16 -5 -23.5 -11t-16.5 -19l30 -12l44 -8q11 -8 22.5 -14.5t23.5 -13.5
q14 -8 33 -12t33 -12q12 -7 24 -14.5t30 -7.5q3 0 11.5 -2t18 -4t18.5 -4t14 -2q9 0 20.5 -8.5t19.5 -13.5q15 -8 30 -12t26.5 -10t18.5 -17.5t7 -34.5q0 -8 -3 -14.5t-3 -17.5q0 -12 3 -20t3 -20q0 -6 -13 -9t-21 -3q-6 0 -14 4t-16 9.5t-15 10t-13 6.5q-44 13 -76.5 24
t-65.5 32q-17 11 -40 18t-42 16q-35 17 -71 29t-69 25q-15 6 -32 11.5t-34 12t-31 14.5t-23 18q-5 5 -8 17.5t-7 20.5q-3 7 1 22t4 22q0 14 6 21t12 15q23 18 45.5 27.5t50.5 20.5q22 9 40.5 17t35.5 15.5t33.5 15.5t34.5 18q37 20 80.5 37.5t85.5 28.5q18 5 37 13.5
t38 16.5t38 14t37 6q13 0 18.5 -9t5.5 -23z" />
    <glyph glyph-name="equal" unicode="=" horiz-adv-x="834" 
d="M722 204q0 -10 0.5 -27.5t-2.5 -28.5q-3 -9 -13 -13.5t-23.5 -7t-27 -4t-22.5 -3.5h-50l-106 -10l-156 12q-19 2 -39.5 1t-34.5 -1q-24 0 -42.5 3.5t-37.5 8.5q-15 4 -25.5 5.5t-17 5t-10 11.5t-3.5 26q0 9 2.5 14.5t6.5 10t8.5 8.5t8.5 9q6 8 12.5 14.5t14.5 11t20 6.5
t29 2l214 -4h48q16 0 33 -4t34.5 -8.5t35.5 -8.5t35 -5q10 0 28.5 0.5t36 -1t30.5 -6.5t13 -17zM716 426q0 -43 -11 -61.5t-53 -18.5h-210q-14 2 -24 4t-24 2h-40q-10 0 -22.5 1t-26 2t-26 2t-21.5 1q-19 0 -33 -3t-31 -3q-12 0 -26 2t-26 7.5t-20 14t-8 20.5q0 9 4 21.5
t10 24.5t13 21t13 11h316q9 6 25 8t35 2t37.5 -1t32.5 -1q13 0 30 1t33.5 1t30.5 -2t20 -8q3 -3 3.5 -9t0 -13l-1 -14t-0.5 -12z" />
    <glyph glyph-name="greater" unicode="&#x3e;" horiz-adv-x="834" 
d="M712 270q0 -14 -8.5 -17.5t-15.5 -10.5q-10 -10 -23 -14.5t-27 -9.5q-7 -2 -17 -6.5t-20.5 -9.5t-19.5 -10t-15 -8q-30 -17 -62.5 -26t-65.5 -24q-28 -12 -55 -23t-57 -25q-17 -8 -31.5 -14t-34.5 -10q-6 -1 -14 -5.5t-16 -10t-15.5 -10.5t-12.5 -6q-16 -5 -28.5 -8.5
t-31.5 -3.5q-11 0 -16.5 4t-5.5 18v40v15.5t2 16.5q1 4 6 6.5t11 5t11 4.5t8 4q15 14 28 21t36 15q14 5 27 8t25 10t25 14.5t27 11.5q21 6 36.5 14.5t35.5 15.5q12 5 26 6.5t24 7.5q9 5 22 14t24 12q14 4 22 5.5t13.5 4t11 6t15.5 10.5q-8 6 -22.5 10.5t-25.5 5.5l-52 22
q-32 13 -54.5 19t-41 10.5t-34 10t-32.5 18.5q-13 10 -32 16t-39.5 12t-40.5 13t-35 18q-11 8 -12 17t-5 20v40q3 5 3.5 13t2 15.5t4.5 12.5t10 5q2 0 12 -6t14 -8q35 -11 61.5 -15.5t54.5 -20.5q33 -19 73.5 -35.5t72.5 -28.5q40 -15 77 -30t75 -34q21 -11 37 -20.5
t39 -17.5q8 -3 20 -4t20 -6q0 -1 1 -3.5t2 -6.5t3 -10q-1 -4 -1 -8q-1 -3 -1 -6v-4q0 -11 1 -26t1 -26z" />
    <glyph glyph-name="question" unicode="?" horiz-adv-x="468" 
d="M335 90q0 -7 -4 -13t-5 -11q-13 -38 -42.5 -60t-80.5 -22q-18 0 -30 8.5t-26 8.5q-2 0 -6 4.5t-4 6.5q0 5 -8 12t-8 12q0 13 -1.5 22t-3 16.5t-2.5 14.5t-1 17q0 1 3 4.5t6.5 7.5t6.5 7.5t3 4.5q11 18 30.5 34t56.5 16q40 0 61 -14.5t37 -37.5q6 -9 12 -17t6 -21z
M436 550q0 -21 -7.5 -44t-12.5 -35q-7 -20 -14 -34t-24 -33q-8 -8 -21.5 -15t-22.5 -15q-3 -2 -7.5 -7.5t-10 -11.5t-10.5 -10.5t-8 -5.5q-16 -3 -29.5 -15.5t-13.5 -28.5q0 -8 -8 -28t-6 -41q-5 -14 -11.5 -15t-16.5 -1q-18 0 -31 16t-13 34v16v60q0 18 4 33t11 28.5
t15.5 27t17.5 29.5q2 4 6 14t7.5 21t6 22t2.5 17q0 13 -2 30t-16 19q-7 8 -15.5 13.5t-18.5 5.5q-5 0 -16.5 1.5t-20.5 -12.5q-6 -8 -4.5 -15.5t1.5 -9.5q0 -8 2 -13t4 -9t4 -8.5t2 -11.5q0 -11 -7 -21t-16 -16q-9 -5 -18.5 -8.5t-20.5 -2.5l-24 4q-19 3 -28.5 7.5
t-13.5 12.5t-4 21v33q0 23 7.5 43t18.5 33q8 9 21 19.5t21 18.5q16 16 48.5 28t62.5 12q35 0 59.5 -2t48.5 -10q6 -2 17 -7t22.5 -10.5t21 -11.5t12.5 -11q9 -13 18 -24t15.5 -22.5t11 -24t4.5 -29.5z" />
    <glyph glyph-name="at" unicode="@" horiz-adv-x="864" 
d="M514 392q0 32 -8 47t-25 18q-12 4 -21 1t-14 -8q-4 -4 -13 -18.5t-13 -18.5q-12 -10 -22.5 -21t-10.5 -28q0 -3 -3.5 -8.5t-7.5 -12t-7.5 -12.5t-3.5 -10q0 -15 0.5 -22t0.5 -12.5t0.5 -11.5t0.5 -19q0 -11 6.5 -25.5t17.5 -14.5q14 0 23.5 0.5t16 2.5t11.5 6.5t11 13.5
q7 9 14.5 15t10.5 17q5 17 9.5 35.5t9.5 41.5q2 8 5 12t5.5 8t4.5 9t2 15zM824 371q0 -19 -7.5 -32t-15.5 -27q-12 -21 -22 -42.5t-21 -44.5q-8 -16 -15.5 -33t-19.5 -29q-9 -9 -24.5 -13t-26.5 -10q-7 -5 -18 -12.5t-23 -7.5q-16 0 -30 3t-33 4q-35 1 -48 21q-2 5 -6 14.5
t-12 9.5q-6 0 -13 1t-14 -6q-19 -21 -36 -33t-43 -12q-14 0 -28 3t-28 5q-12 2 -20.5 1t-17.5 4q-3 2 -8.5 7.5t-10.5 12t-9.5 12.5t-5.5 9q-8 12 -15.5 20.5t-14 17.5t-10.5 20t-4 27v65q0 16 7 24.5t13 19.5q14 24 27 48t36 38q16 10 28.5 22t26 22.5t31 18t42.5 7.5
q14 0 34.5 -1.5t31.5 -5.5q8 -2 14 -2.5t11 -7.5q7 -11 9.5 -22.5t17.5 -13.5l4 24q5 11 16.5 15t26.5 4q6 0 17 -1t21.5 -3t18 -5.5t7.5 -9.5q0 -29 -11 -58.5t-15 -57.5q-2 -15 -2.5 -30.5t-5.5 -29.5q-7 -18 -20 -36t-13 -38q0 -6 3.5 -15.5t8 -18.5t10 -15.5t9.5 -6.5
q27 0 39.5 16.5t21.5 33.5q6 10 15 20t16.5 20.5t11.5 22.5t1 28v179q-2 14 -5.5 27.5t-11.5 21.5q-12 12 -30 18t-33 14q-12 7 -22 12.5t-20.5 10t-23 8.5t-30.5 8h-45q-8 2 -18 8.5t-17 6.5q-27 0 -54.5 -6t-52.5 -16t-46.5 -23t-37.5 -26q-15 -14 -34.5 -27.5
t-30.5 -32.5q-3 -7 -4.5 -15.5t-5.5 -13.5q-6 -10 -14.5 -18t-15.5 -16.5t-12 -19t-5 -26.5v-130q4 -24 6 -53.5t7 -49.5q2 -6 1 -17.5t1 -16.5q5 -11 19 -18.5t22 -18.5q5 -7 6.5 -14t8.5 -12q16 -11 30 -17t28.5 -10.5t31.5 -8t39 -9.5q19 -5 38 -13t42 -8q30 0 63.5 6
t58.5 16q13 5 28 7.5t35 4.5t27.5 9t17.5 17l16 16q11 0 29.5 -2t34.5 -5q-8 -15 -12.5 -29.5t-12.5 -22.5q-6 -7 -17.5 -11.5t-19.5 -9.5q-17 -13 -39 -21.5t-51 -10.5q-30 -2 -64.5 -8t-60.5 -14q-14 -5 -30 -12t-34 -7q-12 0 -21.5 3t-18.5 7.5t-18.5 8t-21.5 5.5
q-36 4 -58 13.5t-47 23.5q-14 8 -30 13.5t-28 13.5q-14 10 -25.5 20t-20.5 21t-16 25t-13 33q-6 20 -11 39t-14 34q-7 11 -15 22t-8 29v29q0 19 -3 33t-3 31q0 19 3.5 34t9 28t12 25t12.5 25q20 46 46 79.5t57 68.5q10 11 19 25t20 24q9 6 22.5 11t27.5 9t28 7.5t24 7.5
q26 10 50 21t58 11h106q33 -11 68 -19t61 -26q18 -12 40 -25t37 -28q27 -27 46.5 -60.5t28.5 -79.5v-44q2 -11 4.5 -30t2.5 -30z" />
    <glyph glyph-name="A" unicode="A" horiz-adv-x="778" 
d="M396 304q0 16 -5 29.5t-11 26.5t-11 26.5t-5 29.5q0 10 1.5 15t3.5 9.5t3.5 9.5t1.5 16q0 9 -2 13.5t-12 4.5q-14 0 -19 -14t-11 -26q-22 -11 -28 -22.5t-10 -33.5q0 -2 -2.5 -9.5t-5 -16.5t-4.5 -16.5t-2 -9.5q0 -14 -8 -24.5t-8 -23.5q0 -3 2 -5t4 -5h106q9 5 15.5 9.5
t6.5 16.5zM766 0q-8 4 -16 6.5t-20 2.5q-17 0 -39.5 -8.5t-44.5 -8.5q-20 0 -41.5 4t-42.5 4q-11 0 -24 -4.5t-24 -4.5q-2 0 -20.5 2t-40 5t-39.5 6t-20 5q-5 4 -7.5 12.5t-4.5 11.5q8 8 13 16.5t5 25.5q0 7 9.5 11.5t21 8.5t21 8.5t9.5 13.5q0 6 -4.5 13.5t-4.5 16.5
q0 15 -9.5 22.5t-25 10.5t-34 3h-36.5h-102q-22 0 -39.5 -19t-19.5 -39q-1 -11 6 -18.5t16 -12.5t17.5 -8.5t11.5 -6.5q4 -5 11.5 -12t14 -14.5t11.5 -15.5t5 -14q0 -11 -9.5 -14.5t-20.5 -3.5h-36q-17 0 -35.5 -3t-44.5 -3q-14 0 -30.5 -1.5t-33.5 -2.5t-32.5 -0.5
t-26.5 5.5q-4 2 -11 2.5t-14 2t-12 4.5t-5 9q0 10 7.5 18.5t18 16t22 13.5t18.5 10q4 2 10 7.5t11.5 13t9.5 15t4 13.5q0 3 3.5 10.5t7.5 15.5t8 15t5 10q10 24 18.5 39.5t17.5 29.5q8 13 16.5 25.5t8.5 30.5q0 19 5.5 34.5t13 28.5t15 25t11.5 24q2 7 6.5 18.5t9.5 24
t9 24.5t5 20q6 12 13.5 19.5t14 16t10.5 20.5t4 32q0 7 8 22t8 22q0 12 0.5 24t4 21.5t10.5 15.5t20 6q12 0 20.5 -1t15.5 -2.5t13.5 -3.5t14.5 -5q6 -2 14.5 -2t18 -0.5t19 -1.5t16.5 -4q19 -8 27 -21t12.5 -29t8.5 -33t15 -33q11 -17 25 -44t21 -51q6 -20 12 -40.5
t14 -37.5q5 -10 13.5 -18t13.5 -18q11 -24 13.5 -40t16.5 -32q7 -8 8.5 -16.5t1.5 -18v-19.5t5 -21q4 -9 15 -20.5t22.5 -24.5t20 -26t8.5 -25q0 -14 9.5 -22t21.5 -13.5t24 -11.5t17 -16v-48h-33z" />
    <glyph glyph-name="B" unicode="B" horiz-adv-x="776" 
d="M490 200q0 6 -5 8t-7 6q-5 9 -2.5 19t0.5 21q-2 12 -5 24t-13 18q-1 1 -5 3.5t-8 5.5t-7.5 5l-3.5 2h-16q-8 0 -15.5 2t-14.5 4q-9 3 -16 2.5t-16 -0.5t-12.5 -2.5t-3.5 -5.5t1 -7t1 -7v-38q0 -8 -2.5 -11.5t-5.5 -6.5t-5.5 -7t-2.5 -13q0 -11 1.5 -14.5t3.5 -5t3.5 -5
t1.5 -15.5q0 -10 -2.5 -16t-5.5 -10.5t-5.5 -8.5t-2.5 -11q0 -5 9 -11.5t20 -12t22 -9.5t15 -5q11 -2 18.5 3t15.5 5h24q10 0 7.5 0.5t2.5 7.5l14 26q0 17 3.5 22.5t7.5 8.5t7.5 8t3.5 21zM464 486q0 11 -3 18.5t-7.5 13.5t-9 11t-6.5 11q-4 11 -5 17.5t-17 6.5
q-8 0 -11.5 1.5t-6.5 3.5t-5.5 3.5t-8.5 1.5q-10 0 -16.5 4t-11.5 4q-6 0 -7 -6.5t-3 -11.5q-7 -4 -10.5 -6.5t-3.5 -13.5q0 -12 4 -21.5t4 -18.5q0 -11 -5 -16.5t-5 -15.5q0 -20 8 -42q4 -11 17 -17.5t23 -6.5q8 0 21 3t21 8q6 2 15 3.5t14 6.5q11 11 13 29t2 30zM728 138
q1 -20 -9.5 -33t-18.5 -29q-4 -7 -12.5 -18.5t-13.5 -15.5q-3 -3 -10 -6.5t-15.5 -7t-16 -6t-12.5 -2.5q-26 0 -37.5 -4t-28.5 -10q-16 -5 -33.5 -8.5t-38.5 -1.5l-110 6q-15 -1 -27 -2t-25 -4h-112q-8 -4 -23.5 -7t-26.5 -3q-9 0 -22.5 1t-28 3t-27.5 4.5t-22 5.5
q-8 2 -18 7.5t-10 16.5q0 4 4 7.5t9 7.5t10 7t7 6q15 17 27.5 38t18.5 44v54q6 25 9 46t3 54q0 23 0.5 43.5t-2.5 40.5q-2 11 -8 23t-6 17q0 9 8 17t12 15q5 11 5.5 22t0.5 26q0 5 0.5 9t-0.5 9q-2 9 -8.5 10t-11.5 8q-4 6 -4.5 14t-0.5 15.5t-1.5 14.5t-5.5 12q-6 6 -16 10
t-19.5 9t-16 12.5t-6.5 20.5q0 12 9.5 19t23 10.5t29.5 5t30 1.5q18 0 29 -2t20.5 -4t20.5 -4t28 -2t37.5 10t40.5 10q17 0 34 -2t34 -2q20 0 34.5 -4t31.5 -4q26 0 46 4t44 4q12 0 15 -3.5t9 -8.5q17 -11 39 -17t35 -21q6 -7 17 -16.5t22 -20t19 -22t8 -21.5q0 -23 3 -45
t3 -47q0 -22 -13 -34t-29 -22q-11 -7 -21 -16t-16 -15q-3 -3 -9.5 -4.5t-11.5 -6.5q4 -4 10.5 -5t14 -2t14.5 -2t11 -5q12 -12 19.5 -17.5t24.5 -12.5q5 -2 10 -10.5t9.5 -19.5t7.5 -23t5 -21z" />
    <glyph glyph-name="C" unicode="C" horiz-adv-x="734" 
d="M668 456q0 -16 -12.5 -29t-29.5 -13q-9 0 -13 2.5t-6.5 7t-4 9t-4.5 9.5q-5 7 -10 10t-10 5.5t-11 4.5t-13 8q-2 2 -6.5 6t-9.5 9l-9 9t-5 6q-5 9 -9.5 20.5t-12.5 19.5q-6 6 -14 4t-18 0q-13 2 -20 8.5t-20 9.5h-60q-4 0 -9.5 -4.5t-11 -10.5t-10 -11.5t-5.5 -7.5
q-11 -17 -15.5 -28.5t-12.5 -31.5q-8 -21 -14 -49.5t-6 -56.5q0 -14 4.5 -22.5t9.5 -16.5t9.5 -16.5t4.5 -22.5v-64q0 -18 9.5 -36.5t25 -33.5t34.5 -24.5t39 -9.5q9 0 15 4t17 4q14 0 26.5 -7t31.5 -7q4 0 10.5 5.5t13 12t11.5 13t7 9.5q5 6 9 16t9 19.5t10.5 18t13.5 12.5
q11 6 14.5 10t5.5 6.5t7.5 4t20.5 1.5q1 0 3.5 -3.5t5.5 -8t5 -9.5t2 -7t1 -11t2 -19.5t2 -19.5t1 -12v-44.5t-0.5 -22.5t-1 -9t-1 -3t-1.5 -4.5t-2 -14.5q-1 -6 -11 -12t-15 -8q-11 -5 -29 -9.5t-29 -10.5q-7 -4 -10.5 -12t-17.5 -8q-12 0 -23 5t-27 5q-17 0 -28.5 -8
t-27.5 -8h-106q-23 0 -39 12t-37 22q-16 8 -37 10.5t-39 7.5q-20 6 -35.5 25t-26.5 35q-5 7 -6 10t-6 8q-5 6 -14 16t-16 17t-9 8.5t7 -9.5q-5 8 -9 18q-4 8 -8.5 19t-8.5 23q-2 4 -4 14t-3.5 21t-3 21t-1.5 16v58q0 14 2 23.5t5 18t5 18.5t2 26q0 6 3 15t7 18t7 17t3 12
q0 16 5 25t12.5 16t15 13.5t13.5 17.5q7 13 8 24t12 18t24.5 10t25.5 10q15 8 26.5 16.5t23.5 16t26 14t34 11.5q32 0 57.5 1t48 2t45.5 2t51 1h54t44 -10q8 -4 18 -9.5t14 -14.5q5 -11 11.5 -30t8.5 -30q7 -32 11.5 -64.5t4.5 -67.5z" />
    <glyph glyph-name="D" unicode="D" horiz-adv-x="828" 
d="M552 330q0 12 -2 18.5t-5 12t-6.5 10.5t-6.5 13l-2 34q-1 13 -5 18.5t-7 13.5t-2 21t-4 21q-3 4 -9 8t-13 8t-13.5 7.5t-10.5 6.5q-8 7 -16.5 15t-18 15.5t-21 12.5t-24.5 5q-5 0 -16.5 -2.5t-13.5 -5.5l-20 -28q0 -11 1 -17t2.5 -12t3 -13t1.5 -18q-5 -10 -13.5 -20.5
t-8.5 -21.5q0 -9 4 -15t8.5 -11.5t9 -10.5t4.5 -11l3 -83q-2 -7 -6.5 -9.5t-8.5 -4t-7 -4t-3 -9.5q0 -8 10 -19.5t12 -16.5q4 -5 4 -15.5v-18.5q0 -16 -4 -29.5t-4 -26.5q0 -9 8.5 -10t13.5 -6l8 -16q2 -2 8.5 -2.5t13.5 -2.5q8 -2 18 -3q20 0 30.5 12.5t23.5 19.5
q8 5 14.5 5.5t11.5 8.5q8 14 12.5 33t9.5 33q5 13 11 26t11.5 26t9.5 27t4 31zM782 220q0 -5 -4 -11.5t-9.5 -13t-10.5 -12.5t-8 -11q-5 -8 -6.5 -21t-7.5 -21q-5 -6 -13 -15t-17 -17t-18.5 -15t-17.5 -9l-26 6q0 -23 -5.5 -33.5t-16 -14.5t-24.5 -5t-32 -7
q-14 -5 -27 -11.5t-33 -6.5q-10 0 -16 3t-16 3q-14 0 -23.5 -7t-26.5 -7q-11 0 -27 3t-31 3q-17 0 -29 -3t-29 -3h-34q-12 0 -22.5 5t-21.5 5q-10 0 -16.5 1.5t-12 3.5t-12.5 3.5t-17 1.5q-9 0 -16.5 -2t-14.5 -5t-15.5 -5t-19.5 -2h-66q0 13 -3 22.5t-3 17.5q0 10 9.5 14
t14.5 12q10 15 26 24.5t24 23.5q2 3 3.5 13t3 21t2.5 19.5l1 8.5q0 8 -5 17t-5 21q0 9 7 20t7 22v16q0 9 3 14.5t7.5 10l9 9t8.5 12.5q-10 8 -17 11.5t-15 12.5q-5 5 -6 15l-2 20t-3.5 19t-8.5 12q2 7 8 14t6 12q0 20 -6 34.5t-6 35.5q0 12 3 20t3 20q0 6 -5 15.5t-12 18.5
t-14.5 15.5t-12.5 6.5q-10 0 -16 10.5t-6 21.5q0 14 10 25t24 11h18q7 0 11 1.5t7 3.5t6.5 3.5t9.5 1.5q14 0 25.5 -7t30.5 -7q15 0 24.5 6t25.5 6h16q11 0 22 2t28 2q15 0 23.5 -2t14.5 -4t13 -4t21 -2q10 0 24.5 3t25.5 3h28q14 -2 22 -1t22 1q13 0 23.5 -2t24.5 -2
q11 0 14 -5.5t8 -10.5q18 -14 42 -22t40 -24q8 -8 12.5 -11t17.5 -7q12 -3 23 -13.5t11 -26.5q0 -8 5 -14t5 -12q0 -8 8.5 -10.5t13.5 -7.5q9 -10 15.5 -21t10.5 -29q9 -41 12.5 -94t3.5 -100v-42z" />
    <glyph glyph-name="E" unicode="E" horiz-adv-x="744" 
d="M680 80q-2 -12 -4.5 -26t-7.5 -26t-13.5 -20t-22.5 -8h-32q-15 0 -28 2t-26 3t-26 0.5t-28 -5.5h-88q-14 -8 -33.5 -5t-38.5 3q-21 0 -36 -1t-32 7q-8 4 -13 11t-19 7q-3 0 -10 -2t-15 -4.5t-15 -5.5t-8 -6q-4 -1 -6 -0.5t-6 0.5q-11 0 -29 -3t-33 -3q-11 0 -18.5 1
l-15 2t-16 2t-20.5 1q0 11 -1.5 13.5t-3.5 3t-3.5 1.5t-1.5 10q0 2 3.5 6.5t7.5 9.5t7.5 9.5t3.5 6.5q0 8 9.5 10.5t14.5 5.5q14 10 25 27t11 39q0 15 0.5 23t1.5 14t1.5 12.5t0.5 18.5q0 19 1 30.5t1 31.5q0 10 3 16.5t7 12t7 9.5t3 10q0 9 -8.5 12.5t-11.5 9.5q-2 5 -3 14
t-1 18.5v18v13.5q0 7 4 20t4 18q0 14 -6 21.5t-6 18.5q0 12 6 19t6 21q0 5 -3 13t-7.5 15.5t-9.5 14t-8 9.5q-5 5 -12 3.5t-12 2.5q-8 6 -14.5 11t-13.5 13q-2 3 -4 10.5t-2 13.5q0 8 6 14.5t14 9.5q7 1 10.5 2t6.5 2.5t7.5 2.5t13.5 1h32q3 0 11.5 -1.5t19 -3t21.5 -2.5
t18 -1q23 0 44 8t42 8q23 0 45 -5t55 -5q14 0 25 5t27 5h12.5h17.5h17h11q13 -3 20 -3t12 1t11 2.5t17 1.5q22 0 33.5 3t28.5 3q15 0 28.5 -12t13.5 -30q0 -2 2 -9t4 -14.5l4 -15t2 -11.5v-26q0 -15 2 -28t2 -30v-32q0 -14 -2.5 -21t-19.5 -7q-3 0 -10 1.5t-14.5 4.5t-14 6
t-7.5 6q-4 9 -8.5 25t-11.5 23q-6 6 -19 14.5t-29 17t-31 14.5t-25 6q-15 0 -26 2t-20 2h-52q-11 0 -21 1t-17.5 1t-12.5 -3t-7 -11q-3 -11 4 -23q3 -6 8 -13q-1 -10 -0.5 -17t0.5 -17q0 -12 -4 -17t-4 -17q0 -3 4 -7t4 -9v-24q0 -5 -1 -9t0 -7t5 -4.5t14 -1.5
q17 0 34.5 13.5t25.5 24.5q5 7 8 18t8 16t11.5 15.5t12.5 14.5q2 1 13.5 1.5t12.5 0.5q6 0 9 -4t4.5 -9t2 -11t2.5 -10q3 -8 5 -14.5t3.5 -13.5t2.5 -15.5t1 -20.5q0 -20 -4 -33t-4 -27q1 -3 3 -7q1 -3 2 -5.5t1 -3.5q0 -17 -3 -37t-5 -37q0 -5 0.5 -12.5t0.5 -14.5t-2 -12
t-7 -5q-21 0 -35.5 5.5t-16.5 26.5l-6 36q-3 8 -8 11t-18 3q-7 4 -13 8q-5 3 -9.5 5.5t-5.5 2.5q-5 0 -8 2l-6 4t-7 4t-11 2q-5 0 -5.5 -5.5t-0.5 -10.5v-40q0 -14 4 -28.5t4 -29.5q0 -11 -5 -20.5t-5 -23.5q0 -24 15 -40.5t49 -21.5q15 -2 21.5 -0.5t11 3.5t10 4.5
t19.5 2.5q2 0 9 3t14.5 6.5t13.5 6.5t7 3q13 0 18.5 1.5t8.5 4.5t6.5 7.5t12.5 11.5q8 6 17 16.5t17 15.5q9 4 12 15.5t5.5 23.5t7.5 21.5t19 9.5q17 0 30.5 -3.5t13.5 -20.5q0 -15 -1.5 -27t-4.5 -25z" />
    <glyph glyph-name="F" unicode="F" horiz-adv-x="694" 
d="M664 536q0 -5 -3 -10.5t-3 -13.5v-42q0 -20 -5.5 -27t-26.5 -7q-13 0 -19.5 4t-9.5 10t-5 14t-6 16q-8 17 -20 28q-5 4 -8.5 11.5t-7.5 14t-10 11.5t-16 5q-3 0 -8 3t-11 6t-11 6t-8 3q-13 0 -20 1.5t-12.5 3.5t-12.5 3.5t-19 1.5q-11 0 -24.5 -1.5t-25 -5t-19 -10.5
t-7.5 -17q0 -3 3 -15t3 -17q0 -7 -5 -14t-5 -18q0 -10 1 -15.5t2 -9t2 -8t1 -13.5v-16q0 -5 13.5 -9.5t20.5 -4.5q8 0 17.5 2t18.5 7t15.5 13.5t9.5 20.5q6 9 10 16.5t9.5 12.5t13.5 7.5t22 2.5q17 0 21.5 -21.5t4.5 -46.5q0 -17 -2 -37t-2 -31t6 -22t6 -22q0 -17 0.5 -25.5
t1 -15.5t0 -16t-1.5 -25q-1 -6 -6.5 -10.5t-13.5 -7.5q-9 -4 -20 -6q-6 2 -16.5 9.5t-13.5 12.5q-3 7 -2 13t-2 11q-5 9 -13 15.5t-13 16.5q-3 7 -12.5 19.5t-31.5 12.5q-23 0 -32.5 -3.5t-9.5 -26.5q0 -4 -0.5 -13t-0.5 -18.5t-0.5 -18t-0.5 -12.5q0 -6 -1.5 -9.5t-3.5 -6
t-3.5 -5.5t-1.5 -9q0 -5 2 -12t5 -13t6 -10.5t5 -4.5v-38q0 -15 3 -21t8 -8.5t12.5 -4t16.5 -8.5q11 -8 25.5 -17t14.5 -29q0 -9 -11 -14.5t-25.5 -8.5t-29.5 -4.5t-22 -2.5l-74 14q-13 -2 -24.5 -5t-25.5 -3q-17 0 -31 5t-33 5q-21 0 -40 -7t-36 -7q-20 0 -32 9t-12 29
q0 15 10.5 23.5t22.5 17t22.5 19.5t10.5 30q0 8 2.5 13.5t5.5 10t5.5 9.5t2.5 11v62q0 29 2 52.5t10 47.5l-16 82q2 17 4 40l4 46q1 14 -1.5 33t-2.5 27q0 13 -5.5 19.5t-13 10.5t-15.5 8.5t-14 13.5q-1 2 -4.5 6t-7.5 8.5t-7 8.5t-3 7q0 10 6.5 17t16 11.5t21 6t22.5 1.5
q18 -2 30.5 -3.5t24.5 -2.5t25 -1.5t32 -0.5q13 0 25.5 -0.5t22.5 -0.5q14 0 24 -6t24 -8l42 16l84 1q6 1 15.5 2t19.5 1.5t19.5 1.5t15.5 3h50q10 2 27.5 -1t24.5 -3q16 0 24 -2.5t11.5 -9.5t4 -18t0.5 -28t-6 -24t-6 -20q0 -6 8 -14t8 -20z" />
    <glyph glyph-name="G" unicode="G" horiz-adv-x="792" 
d="M752 262q0 -11 -2.5 -16t-7 -7t-10.5 -3.5t-12 -5.5q-5 -3 -9.5 -12t-8.5 -19.5t-6 -22t-2 -18.5q0 -14 3 -22.5t7 -15.5t7 -14.5t3 -19.5v-40q-4 -7 -9.5 -11.5t-16.5 -4.5q-8 0 -15 3t-17 3q-11 0 -17.5 -6t-14.5 -8q-14 -4 -26 -5t-24 -1.5t-24 -1.5t-26 -4
q-12 -3 -27.5 -8t-33 -9.5t-34 -7.5t-29.5 -3q-6 0 -14 4t-18 4q-13 0 -25 -4t-23 -4q-8 0 -12 6.5t-12 9.5q-17 5 -36.5 5.5t-37.5 6.5t-27 20t-23 24q-12 9 -29 17t-27 19q-13 15 -21 29.5t-13.5 30.5t-10.5 33.5l-11 38.5q-4 12 -12 22.5t-8 27.5q0 7 2 19t4 23
q3 13 6 28q-6 5 -8 9.5t-2 11t1 16.5t1 25t4.5 31.5t11.5 24.5q6 7 11.5 19t10.5 24.5l10 25t8 21.5q5 12 17.5 23t27.5 20.5t29.5 18.5t23.5 18q11 11 21 18t21.5 11.5t27 7t38.5 5.5q13 1 23.5 4.5t21.5 7t23 6t28 2.5q20 0 32.5 2t29.5 -2l60 -10q17 -3 29.5 -7.5
t32.5 -4.5q4 0 12 -2l16 -4t14.5 -4t9.5 -2q7 0 17 -1t19 -5t15.5 -10.5t6.5 -17.5q0 -7 -1 -19t-1 -23q0 -14 0.5 -23.5t1.5 -17.5t1.5 -17t0.5 -22q0 -11 -2 -23.5t-6.5 -24t-12.5 -19t-19 -7.5q-10 0 -13.5 5.5t-8.5 10.5t-10 4.5t-12 3.5t-11 14t-7 18q-10 24 -20 35
t-30 17q-3 1 -7 5.5t-8 9.5t-8.5 9t-10.5 4q-2 0 -14 3t-25.5 6t-25 6t-13.5 3q-11 0 -16.5 -1.5t-9.5 -3t-9 -2.5t-17 -1q-6 0 -15 -5t-11 -9q-12 -18 -26 -30t-22 -32q-5 -12 -9 -29t-7 -35q-1 -6 -4.5 -10.5l-7 -9t-6 -10t-2.5 -12.5v-32q0 -8 5.5 -7.5t8.5 -4.5
q3 -4 3.5 -11t0.5 -13q0 -11 -0.5 -17.5t-1 -12t-1.5 -11t-1 -13.5q0 -2 3 -9t6 -15t6 -15t3 -9q0 -17 -1 -23.5t0 -9.5t5 -5.5t14 -9.5q1 0 5 -4.5t9 -10t9.5 -10t4.5 -5.5q5 -9 10.5 -13t11.5 -6t13.5 -3.5t16.5 -5.5q7 -4 18 -8t22 -4q24 0 38 15.5t14 40.5q0 23 -3 46.5
t-15 35.5q-7 7 -19 9.5t-24 5.5t-20.5 8.5t-8.5 18.5q0 30 25 44t55 14q23 0 44 -4t46 -4q13 0 23 -0.5t19.5 -1.5t20 -1.5t25.5 -0.5q14 0 22.5 6t25.5 6q13 0 21.5 -8t13 -20t6 -26t1.5 -26z" />
    <glyph glyph-name="H" unicode="H" horiz-adv-x="900" 
d="M870 650q0 -15 -12 -29.5t-20 -25.5q-3 -4 -9 -6t-13 -3.5t-13 -3t-10 -5.5q-2 -3 -4.5 -9t-4.5 -13.5t-3 -14.5t-1 -10q0 -6 1.5 -10t3.5 -7.5t3.5 -8.5t1.5 -14v-82q0 -11 -4.5 -23t-10.5 -23t-10.5 -20.5t-4.5 -13.5q0 -11 10.5 -28.5t14.5 -31.5q4 -17 6.5 -41
t4.5 -49t5.5 -48t9.5 -36q3 -6 10.5 -11.5t16 -11.5t16.5 -11.5t11 -10.5q4 -6 1.5 -11.5t-6.5 -10t-6 -8.5t4 -9q-19 1 -42 -1.5t-45.5 -5.5t-43.5 -6t-37 -3q-29 0 -52 6.5t-56 6.5q-11 0 -30.5 2.5t-45.5 -2.5q-5 -1 -9 2.5t-7 8.5t-5.5 10.5t-3.5 8.5q20 15 40 34t35 39
l-20 40q5 9 9.5 16t7.5 14.5t5 16.5t2 23q0 18 -5 34t-14.5 28.5t-23.5 20t-32 7.5q-7 0 -15.5 -7.5t-24.5 -7.5q-12 0 -20 1t-14.5 2l-13 2t-16.5 1q-9 0 -17.5 2.5t-15 3.5t-10.5 -1.5t-4 -12.5q0 -12 1 -19t2 -12.5l2 -11t1 -15.5q0 -21 -9.5 -35t-20.5 -25
q15 -8 20 -18.5t7.5 -22.5t6 -25t14.5 -24q4 -5 13 -9t19 -8.5t19.5 -9t15.5 -8.5q-4 -3 -5 -11.5t-9 -13.5q-18 -11 -46.5 -15.5t-46.5 -4.5q-26 0 -42 -2t-30.5 -4t-31.5 -4t-44 -2q-16 0 -26.5 2.5t-20.5 5t-21 5t-27 2.5q-11 0 -16.5 6t-8.5 14.5t-5 18t-5 16.5
q18 9 26 15.5t12.5 12.5t9 13.5t15.5 18.5q5 5 8.5 18.5t5.5 30t2.5 32.5t0.5 27q0 22 -3 33t-3 25q0 34 2.5 61t4.5 52q1 23 0 52t-1 61q-3 19 -10 30.5t-15.5 18.5t-17 12t-16 11.5t-12 16t-4.5 26.5q0 6 -3 15t-2 15q12 -1 20.5 -0.5t19.5 0.5q9 0 15.5 2.5t12.5 5
t13.5 5t18.5 2.5q12 0 18 -3l12 -6t14.5 -6t25.5 -3t33 4.5t26 9.5q12 6 33 10t38 4q3 0 16 -4.5t27 -10.5t25.5 -12t11.5 -8q0 -22 -6 -32.5t-15 -17t-20.5 -11.5t-23.5 -15q-7 -6 -10 -15t-4.5 -19.5t-3.5 -21t-7 -18.5q-4 -6 -12 -6.5t-8 -8.5q0 -6 11 -14.5t18 -22.5
q3 -6 4 -13t2 -13.5t2 -11t3 -5.5q11 -5 20 -4t17.5 3.5t17.5 3.5t20 -3q7 -3 9.5 -11.5t10.5 -8.5q14 0 20.5 2.5t10.5 5t6.5 5t9.5 2.5h40q6 0 11.5 5.5t9.5 13.5t6.5 16.5t2.5 14.5t-5 8t-7 7q-2 6 -3 14.5t-1 17.5v16.5t-1 11.5l20 40q-13 10 -22.5 17.5t-17 15.5
t-14.5 17.5t-15 24.5q44 22 97.5 31t116.5 9q18 0 40.5 -2.5t45 -4t42.5 -0.5t32 7v-30z" />
    <glyph glyph-name="I" unicode="I" horiz-adv-x="468" 
d="M432 20q0 -8 -13.5 -13t-31 -8t-35 -4t-24.5 -1l-90 16q-11 -2 -17.5 -5.5t-16.5 -6.5h-84q-12 0 -25 2t-23.5 7.5t-17 14t-6.5 20.5q0 19 9.5 28t21.5 15t23.5 13t15.5 24q2 8 8 12.5t6 11.5q0 26 -5 49t-5 53v84q0 8 -4 14.5t-4 17.5q0 22 7 44t7 46v64q0 3 -3 8
t-7.5 10t-8.5 9.5t-5 6.5q-6 9 -5 20t-5 22q-2 5 -6.5 4.5t-9.5 1.5q-3 1 -8 6.5t-10 11.5t-8.5 12t-3.5 10q0 9 10 15.5t24 11t28.5 7t23.5 2.5q22 0 43 -8t49 -8q24 0 42 8t38 8q21 0 36.5 -5.5t31.5 -8.5q13 -2 23.5 0.5t18.5 -4.5q1 -1 3 -7.5t3.5 -15t2.5 -15.5t1 -10
q0 -7 -4 -8t-8 -4q-6 -5 -16 -11t-19 -13.5t-16 -16.5t-7 -19q-2 -30 -8 -48t-6 -42l10 -98q0 -23 3 -48t-3 -46q-2 -7 -7 -13t-5 -19q0 -7 2.5 -11.5t5.5 -8t5.5 -8.5t2.5 -12v-24q0 -47 22 -74q7 -8 16 -14t17.5 -13.5t14.5 -16.5t6 -22z" />
    <glyph glyph-name="J" unicode="J" horiz-adv-x="484" 
d="M440 620q0 -12 -6 -18.5t-14 -11t-17 -8.5t-15 -10q-22 -22 -22 -68q0 -10 3 -19.5t3 -20.5q0 -7 -5 -13t-5 -19q0 -12 2 -27.5t4 -28.5v-44l-38 10q6 -13 12.5 -22t12 -17t8.5 -17t3 -22q0 -8 -2 -15t-2 -15q0 -5 2 -8t5 -5.5t5 -5.5t2 -9q0 -14 -1 -32t-3 -32
q-2 -28 -2 -61t-6 -59q-2 -11 -10 -28.5t-8 -31.5q0 -5 -5 -14t-7 -14q-5 -17 -12 -26t-14 -15t-12.5 -10.5t-5.5 -12.5q0 -5 -5.5 -11t-12 -12t-13.5 -11.5t-11 -7.5q-6 -4 -12 -3.5t-12 -4.5q-13 -11 -22 -20t-30 -12l-48 -6q-17 -2 -28 -8t-30 -6q-8 0 -19 1.5t-21.5 4
t-20 6t-13.5 8.5q-7 7 -15 11t-15 11q-8 7 -14.5 11t-12 9t-8.5 12.5t-3 21.5t-0.5 24t-0.5 27q0 5 4.5 13t4.5 13q0 12 4.5 12t11.5 6q14 11 32.5 17t47.5 6q3 0 9.5 -4t13 -9t12 -10t5.5 -7q0 -9 2 -17.5t2 -18.5q0 -5 0.5 -14.5t3.5 -11.5q8 -5 13 -4.5t19 0.5
q8 0 12.5 9t6.5 15q2 12 6 19t4 23q0 13 1 20.5t1 17.5v20q0 10 -0.5 15t-0.5 8.5t-0.5 7.5t-0.5 13q0 7 2 11t5 7.5t6 7.5t5 12q8 13 10 22t2 30q0 14 -5.5 19.5t-12.5 9.5t-12.5 9.5t-5.5 19.5q0 13 2 23.5l4 21t4 22t2 25.5l-12 110q3 11 7 21t7.5 20.5t6.5 22.5t3 28
q0 2 -2.5 1.5t-5.5 -1.5t-5.5 -1.5t-2.5 1.5q-3 24 -9 49t-7 35q-9 1 -21 5t-23 10t-18.5 14t-7.5 17q0 15 6 24.5t16.5 14.5t24 7t28.5 2h74q10 0 22.5 -6t27.5 -6t24.5 3t18 6t18 6t23.5 3q6 0 18.5 -0.5t25.5 -2t24 -3.5t14 -6q5 -5 5 -12.5t5 -13.5q4 -5 8 -8t4 -14z
" />
    <glyph glyph-name="K" unicode="K" horiz-adv-x="840" 
d="M850 18q0 -7 -11 -10.5t-17 -3.5q-29 0 -66 -7t-74 -7q-16 2 -28.5 5.5t-23.5 8.5h-80q-8 2 -20 3.5t-12 10.5t6 14t6 12q0 11 -3 16.5t-7.5 8.5t-10.5 6t-11 9q-8 10 -13 24.5t-13 25.5q-5 8 -12.5 14t-9.5 16q-2 8 0.5 17.5t-2.5 14.5q-3 3 -7.5 4t-9.5 1.5t-9.5 1.5
t-7.5 5q-4 6 -8 15.5t-9 19t-11.5 16.5t-15.5 7q-11 0 -16 -2t-7 -6.5t-2.5 -11t-2.5 -16.5q-1 -5 -0.5 -20t0.5 -24q2 -3 5 -7q2 -3 3.5 -5.5t1.5 -3.5v-66q0 -14 10.5 -22.5t23.5 -16t23.5 -16t10.5 -21.5t-9.5 -19.5t-22.5 -6.5h-56q-8 0 -16.5 4t-19.5 4q-10 0 -22.5 -4
t-25.5 -4q-4 0 -11 2t-15 4l-20 6q-13 -10 -28 -12t-38 -2h-32.5t-32.5 3t-25 10t-10 21q0 10 6.5 19.5t15.5 18t18.5 15.5t15.5 13q4 4 11 8.5t7 11.5q0 8 1 17.5t1 20.5q0 21 -1 34.5t3 22.5q2 6 8 10.5t6 20.5q0 12 -3 20.5t-7 15.5t-7 14.5t-3 17.5q0 3 2.5 11.5
t5.5 18.5t5.5 19.5t2.5 14.5q0 11 -7 22t-7 28q0 10 2.5 16t5.5 10.5t5.5 9.5t2.5 14q0 13 -2.5 22.5t-6 18.5t-7.5 19t-6 22t-11.5 17.5t-20.5 10.5t-19.5 11.5t-8.5 20.5v21.5t4 18.5h84q15 8 32.5 10t41.5 2q27 0 47.5 -3t44.5 -3q17 0 28 7t30 7q7 0 17.5 -4t20 -11
t16 -15t6.5 -16q-7 -15 -20 -26.5t-25.5 -24t-21.5 -27.5t-9 -36q0 -6 5 -10.5t5 -13.5q0 -11 -6 -16.5t-6 -15.5v-28q0 -11 -6 -19t-6 -21q0 -9 8.5 -14.5t17.5 -5.5q8 0 16.5 7t11.5 13q4 8 10.5 10.5t11.5 7.5q6 6 11 14.5t11 16.5t12.5 15t15.5 10q15 4 21 10t8.5 12.5
t5 15t11.5 18.5t19.5 19t10.5 29q0 6 -8.5 12.5t-19.5 12.5t-21.5 11t-14.5 8q2 5 3.5 17t4.5 19q2 5 9 9.5t15.5 7.5t17 5t14.5 2q12 0 21 -4t23 -4h32q14 0 24 -8t28 -8t34 5t44 5q32 0 51 -8t19 -38q0 -13 -14.5 -20.5t-25.5 -11.5q-20 -8 -41.5 -19.5t-38.5 -22.5
q-5 -3 -13 -5t-11 -7q-5 -7 -4.5 -13t-5.5 -11q-7 -6 -16 -8t-16 -8q-16 -14 -30.5 -29.5t-25.5 -34.5q-3 -5 -8.5 -8t-5.5 -14q0 -9 6 -17.5t14 -16t16.5 -14.5t13.5 -12t9.5 -14.5t9 -19.5t9.5 -19.5t10 -14.5q20 -20 33.5 -42t26.5 -48q3 -5 9.5 -16.5t14.5 -13.5
q5 -2 8.5 -0.5t7.5 -1.5q5 -4 9.5 -15t6.5 -17q5 -11 17 -20t21 -16q10 -8 20.5 -13t19.5 -12t14.5 -17.5t5.5 -27.5z" />
    <glyph glyph-name="L" unicode="L" horiz-adv-x="696" 
d="M662 176l14 -16q0 -6 -3 -13.5t-3 -12.5q0 -11 -2.5 -19t0.5 -17q-7 -7 -7.5 -15t1 -17t1.5 -19t-5 -21l-10 -22q-19 2 -33.5 1t-28.5 -1q-24 0 -44 2t-46 2h-20t-22 -2q-17 -5 -41 -0.5t-45 4.5q-32 0 -59.5 1t-54.5 3l-100 -14h-98q-4 8 -13 16.5t-9 17.5q0 10 6 23
t12 19t16.5 6.5t15.5 7.5q11 16 21.5 35t10.5 47v30q0 14 -2.5 19.5t-11.5 10.5q5 10 7.5 18t2.5 22v26q0 22 7 39.5t7 34.5q0 9 -10 24t-10 32q0 11 3 20t5 20q-1 5 -1 15v21t-0.5 22.5t-3.5 20.5q-7 22 -20 31.5t-21 15.5q-8 5 -16 8.5t-8 21.5q0 15 11.5 32.5t28.5 17.5
q16 0 29 -2t25 -4t25 -4t29 -2q17 0 41 4t35 4q10 0 27.5 4t28.5 4q10 0 16.5 -0.5t12.5 -0.5t13 -0.5t18 -0.5q6 0 13.5 -3.5t15 -8.5t12.5 -11t5 -11q0 -2 -2 -9t-5 -15.5t-6.5 -15.5t-6.5 -10q-5 -5 -12 -8.5l-14 -7t-13 -8.5t-9 -12q-8 -19 -9 -37t-1 -37v-16
q0 -9 -4.5 -18.5t-10.5 -19t-12 -18.5t-9 -16q14 0 24 -7t10 -21v-40q0 -14 -4 -24t-4 -26q0 -11 5.5 -17.5t8.5 -14.5v-100q4 -3 10 -9l12 -12t12.5 -10.5t11.5 -4.5q9 0 15.5 6t20.5 6q12 0 24 -9t18 -9q26 0 46 14t32 28q14 16 20 26.5t14 29.5q6 12 10 23.5t11 20
t17 13.5t28 5q6 0 9.5 -8t5.5 -18.5t3 -20.5t2 -15z" />
    <glyph glyph-name="M" unicode="M" horiz-adv-x="1040" 
d="M1004 28q0 -3 -6.5 -6.5t-15.5 -7t-17 -6t-11 -2.5q-12 0 -21 3t-23 3q-8 0 -13 -2t-9.5 -4t-10.5 -3.5t-15 -0.5l-80 6l-110 -14q-14 0 -22 2.5t-11.5 8t-4 14t-0.5 21.5q0 20 13 32t29 23.5t29 25.5t13 37q0 10 -7 15.5t-7 16.5q0 14 5 25.5t5 24.5q0 8 -4 12t-4 12v40
q0 5 3 10.5t3 13.5q0 10 -1 24.5t-3.5 29t-7 26t-10.5 14.5q-4 -5 -12 -16.5t-8 -19.5v-16q0 -15 -8.5 -21t-17.5 -17t-9.5 -29.5t-2.5 -36.5q-2 -14 -7.5 -19t-12.5 -13q-9 -11 -17 -31t-15 -33q-5 -9 -12.5 -15t-11.5 -17t-5.5 -19.5t-3 -16t-4.5 -14.5t-9 -14t-11.5 -10
t-12.5 -10q-4 -4 -8.5 -15t-10 -22t-11.5 -20t-14 -9q-9 0 -18 9.5t-16.5 23t-12.5 27.5t-5 24q0 11 8 22.5t12 19.5q-12 3 -26 6t-26.5 8t-21 13t-8.5 21v16q0 3 -4 9t-8.5 12t-9.5 11.5t-6 7.5q-11 18 -18.5 37.5t-13.5 42.5q-3 10 -7 17t-8.5 12.5t-9.5 11t-9 13.5
q-5 10 -9.5 17.5t-12.5 12.5q-7 1 -12 3q-5 1 -8.5 2t-3.5 -1q0 -11 5 -19q3 -4 6 -7l-5 -36q-2 -11 -5 -21.5t-3 -18.5q0 -14 6 -27.5t6 -28.5q0 -10 -3 -17t-3 -15q0 -9 4 -16t4 -18q0 -13 -6 -23t-6 -17q0 -4 6 -8t13.5 -8t14 -7.5t8.5 -4.5q8 -6 9 -11t5 -15t12 -16
t15.5 -12.5t13 -15.5t5.5 -24q0 -8 -9.5 -4.5t-16.5 4.5q-18 2 -42 0q-11 -1 -22 -0.5t-18 0.5q-18 0 -32 4t-34 4q-10 0 -22.5 -1.5l-25 -3t-23.5 -2.5t-19 -1t-16 1t-16 -1q4 18 12.5 32t18.5 26t21 23t20 23q10 13 12 33t4 39q2 20 9 36t7 34q0 14 -5 21t-5 21q0 8 4 20
t4 22q0 14 -4 26.5t-4 31.5q0 14 4 18.5t4 13.5q0 16 -9 26t-9 26q0 5 2.5 8t5.5 7t5.5 9t2.5 14q0 13 -0.5 21.5t-2.5 14.5t-6 11.5t-11 12.5q-6 6 -9 13.5t-9 12.5q-2 2 -6.5 2.5t-9 0.5t-9 0.5t-7.5 2.5q-8 8 -15.5 26t-10.5 30q9 5 27.5 7.5t32.5 2.5q9 0 16.5 -2.5
t17.5 -3.5l26 12l122 -16q14 3 23 8.5t23 5.5q16 0 28 -5.5t12 -20.5q0 -5 -4 -11.5t-4 -14.5q0 -9 3 -14t7 -8t8.5 -5.5t7.5 -6.5q6 -9 7 -17t7 -17q5 -8 12 -11.5t10 -12.5q1 -5 0.5 -19t1.5 -21t7.5 -11t11.5 -8t10.5 -9t4.5 -14q0 -13 8.5 -21.5t13.5 -16.5
q2 -3 3.5 -12.5t6.5 -9.5l2 -16q2 -10 5 -25.5t7 -24.5q7 -16 18.5 -25t35.5 -9q9 0 15 9t10.5 22t7 26.5t3.5 22.5q1 13 6.5 22.5t11.5 19.5t11 21t5 27v16q6 19 16.5 34.5t21.5 30t21 29t15 32.5q4 14 8 29t10.5 27t17 20t28.5 8q16 0 30.5 -5t35.5 -5h42q24 0 50 -9
t46 -13q14 -3 20.5 -2t11.5 -10q2 -5 2 -11v-13q0 -11 -9 -18.5t-21 -13t-24 -10t-18 -10.5q-5 -5 -7.5 -18.5t-4.5 -21.5l14 -72q-1 -13 -4.5 -19.5t-3.5 -20.5t5 -24t5 -26q0 -14 -3 -23.5t-3 -24.5q0 -22 7 -40t7 -42q0 -6 1 -20t2 -29.5t2 -29.5t1 -21q0 -8 0.5 -12.5
t2.5 -8t5 -6.5t8 -9q5 -5 14.5 -12.5t18.5 -16.5t16 -18.5t7 -18.5z" />
    <glyph glyph-name="N" unicode="N" horiz-adv-x="794" 
d="M782 634q0 -15 -4.5 -20.5t-11 -7.5t-14 -3.5t-14.5 -8.5q-5 -5 -5 -11.5t-5 -12.5q-8 -11 -18 -25t-10 -31v-24q0 -12 -1 -28.5t-2.5 -34.5t-3.5 -36t-5 -33v-220q5 -21 6.5 -51t1.5 -51q0 -5 -5 -9.5t-7 -6.5q-4 -5 -4.5 -12.5t-2 -14t-5.5 -11t-16 -4.5t-18 1.5
t-10.5 4.5t-8.5 6.5t-11 7.5t-14 10.5t-12 11.5q-7 8 -5 15.5t-3 16.5q-3 5 -16 5.5t-18 2.5q-13 5 -22.5 15.5t-21.5 16.5q-14 7 -20 11t-10 8.5t-8 10.5t-14 16q-15 15 -30 23t-28 25q5 4 10.5 9t5.5 13q0 6 -5 9.5t-11.5 6.5t-14 5.5t-11.5 4.5q-24 11 -53 30
q-21 22 -39.5 41t-29.5 43q-5 10 -22 10q-6 0 -13 -5t-7 -11q0 -8 3 -13.5t6.5 -10t7 -8.5t5.5 -10q5 -16 6.5 -27.5t1.5 -28.5q0 -6 2 -11t4 -9l-6 -24q4 -20 6 -42t10 -40q5 -10 15 -14t19 -10q17 -11 28 -22.5t24 -25.5q4 -5 12.5 -9t17.5 -8.5t15.5 -9.5t6.5 -11
q0 -8 -5.5 -12t-12.5 -4q-9 0 -23.5 3t-29 7t-27.5 7t-20 3q-15 0 -37 -8t-45 -8q-10 0 -17 2.5t-13 5.5t-12.5 5.5t-15.5 2.5q-8 0 -14.5 -8t-17.5 -8q-5 0 -17 2.5t-24.5 7t-22.5 10.5t-10 12q0 1 3.5 4.5t8 7.5t8.5 8l6 6q10 13 22.5 24.5t24 24.5t19.5 29t8 38v48
q0 26 4 52t4 54q0 20 -5 33.5t-5 36.5q0 14 4 30.5t4 27.5q0 46 -13.5 74.5t-36.5 51.5q-8 7 -18.5 12.5t-21 13t-17.5 18t-7 28.5q0 4 11.5 9.5t14.5 6.5q8 1 24 1.5t34 0.5h34.5h25.5q16 0 35.5 1t37.5 0t32 -4.5t19 -12.5t6 -17.5t2 -16.5t3 -15t9 -13q11 -10 22.5 -18.5
t22 -18.5t19 -21.5t14.5 -27.5q4 -11 10 -17t13.5 -10t17 -6.5t19.5 -6.5q8 -3 13.5 -9t11 -13.5t10.5 -14.5t13 -11q11 -7 23 -19.5t23 -20.5q5 -3 7 -11t5 -13q7 -11 13 -20.5t27 -9.5q6 0 9 7.5t3 12.5q0 10 -9 17t-9 21q0 8 3 18.5t6 21.5t6 21.5t3 18.5t-4 19.5
t-4 22.5q0 3 -2.5 8.5t-5.5 12.5t-5.5 12.5t-2.5 8.5q0 20 -5.5 28t-15 12t-22 6.5t-27.5 11.5q-3 2 -11 5t-16.5 6.5t-14.5 8t-6 10.5q0 10 9.5 17t22.5 12t27.5 7.5t24.5 3.5q21 2 39 6t41 4q28 0 47.5 -6.5t44.5 -9.5q13 -2 27 -1.5t24.5 -1.5t17.5 -8.5t7 -20.5z" />
    <glyph glyph-name="O" unicode="O" horiz-adv-x="824" 
d="M562 272q0 19 -4 30.5t-4 25.5t-5.5 24.5t-0.5 19.5q5 8 6.5 22t1.5 22q0 17 -4.5 25t-11.5 13.5t-15 11.5t-15 20q-3 6 -9 17.5t-9 18.5q-4 8 -11.5 24t-19.5 24q-8 6 -18.5 11t-24.5 7q-8 1 -16.5 -1t-16.5 -4q-9 -3 -17 -7q-14 -3 -28.5 -11t-19.5 -19t-7.5 -20
t-4 -17t-3.5 -16t-7 -17q-4 -7 -14 -18t-10 -22q0 -5 3.5 -7.5t8 -5t8.5 -5t4 -8.5q0 -9 -2.5 -15.5t-5.5 -12t-5.5 -11.5t-2.5 -15q0 -5 4 -19.5t4 -18.5q0 -1 -1 -3.5t-2 -5.5q-2 -4 -3 -7q0 -8 4 -12t4 -12v-34q0 -27 13 -51.5t29 -38.5q8 -7 16.5 -6.5t15.5 -7.5
q5 -5 14 -12.5t14 -11.5q1 -1 7.5 -3t13.5 -4t13 -3.5l6 -1.5q11 0 15.5 6t10.5 10q5 3 12 2.5t12 1.5q12 6 15.5 16.5t10.5 21.5q8 14 14.5 29.5t15.5 30.5q5 8 13.5 24t8.5 26zM790 366q0 -3 -4 -13t-4 -21l6 -42l-6 -64q-8 -32 -23.5 -56.5t-36.5 -43.5
q-17 -29 -43.5 -50t-52.5 -38q-28 -17 -67.5 -31.5t-78.5 -14.5h-16q-13 -2 -19.5 -5t-20.5 -3h-41t-41 6q-8 3 -13.5 8.5t-18.5 7.5q-53 7 -88.5 18t-69.5 32q-12 8 -15.5 18.5t-12.5 21.5q-5 7 -11.5 9.5t-10.5 10.5q-8 17 -10.5 32t-11.5 32q-7 14 -14 22t-12 17
t-8.5 21.5t-3.5 35.5q0 9 -0.5 22t-1 26.5t-0.5 26v19.5q2 30 8 54.5t18 47.5q17 35 32 57t40 47q17 26 41 40.5t55 25.5q17 6 33.5 13.5t32.5 12.5q23 7 48.5 11.5t51.5 4.5h72q6 -5 15.5 -7t19.5 -3.5l20 -3t17 -4.5q22 -10 32.5 -15t18.5 -10.5t17 -12.5t28 -20
q7 -5 19.5 -13t26 -17.5t25.5 -19.5t17 -17q15 -22 27 -52t19 -59q4 -15 10 -28.5t6 -35.5z" />
    <glyph glyph-name="P" unicode="P" horiz-adv-x="728" 
d="M482 448q0 17 -9 23t-15 13q-7 8 -7.5 23t-4.5 25q-2 4 -11.5 10t-23.5 13q-8 4 -21 11.5t-16 7.5q-6 0 -10 -2t-7 -5t-6 -5t-9 -2q-5 0 -15 -3.5t-7 -8.5q9 -14 14.5 -21.5t5.5 -24.5t-5 -27t-5 -29q0 -8 1 -13t2.5 -9t3 -8.5t1.5 -11.5v-30h24q1 0 3.5 -1.5t5.5 -3.5
q4 -3 7 -5q4 0 12.5 2.5t17 5.5t16 7t10.5 7q8 8 10.5 22t9.5 22q1 1 6 3.5t9.5 5t8.5 5t4 4.5zM692 373q-2 -8 -6 -10.5t-9.5 -4t-11 -2.5t-9.5 -5q-5 -5 -3 -11.5t-1 -12.5q-3 -5 -10.5 -9t-13.5 -7q-13 -5 -25.5 -9t-26.5 -9q-11 -4 -19.5 -13t-24.5 -9q-11 0 -15 0.5
t-17 0.5q-17 0 -23.5 -6t-18.5 -6h-64q-9 0 -12 -3t-12 -3q-3 4 -7 8q-3 3 -6 5.5t-5 2.5q-9 0 -8.5 0t-3.5 -8l6 -24q-2 -5 -3.5 -13.5t-2 -17.5t0.5 -17t5 -12l-24 -23q8 -1 7.5 -3t10.5 -2q0 -8 1 -13q0 -2 0.5 -4.5t0.5 -4.5q0 -3 1 -4q0 -8 6.5 -12t11.5 -8
q9 -7 23.5 -14.5t28.5 -16t24.5 -19.5t10.5 -26q0 -14 -10.5 -21t-26 -9.5t-32.5 -2t-30 0.5q-29 0 -55.5 5t-57.5 5h-64q-24 0 -38 -4t-34 -4q-53 0 -72 36q7 5 15.5 14t12.5 16q3 5 2.5 12t3.5 12q5 7 16.5 9t17.5 9q10 11 14 32.5t4 41.5q0 8 -5 8.5t-5 7.5q0 13 6 21
t6 23v56q0 11 -5 21t-5 29q0 25 6 42t6 42q0 14 -4 23t-4 25q0 7 -1 20t-2 27q-2 16 -3 33q-1 5 -5.5 8.5t-6.5 5.5q-7 7 -16.5 12.5t-17.5 12.5t-14 16t-6 23q0 11 1.5 14t8.5 8q14 4 25 10t21 6q26 0 38 -3t32 -3q17 0 28.5 5t23.5 5q11 0 18.5 2t19.5 2h36q19 -5 32 -8.5
t36 -3.5q11 0 16.5 3t17.5 3q25 0 43 -6t45 -6h42q3 0 9 -1.5t12 -4t10.5 -5t4.5 -5.5t10 -5t10 -5q0 -5 9 -7.5t13 -4.5q38 -14 52 -46q5 -10 12.5 -15.5t11.5 -14.5q6 -13 9.5 -28.5t6.5 -27.5v-79q0 -10 1 -21t-1 -21z" />
    <glyph glyph-name="Q" unicode="Q" horiz-adv-x="824" 
d="M552 302q0 7 -4 12.5t-8.5 11t-8 12t-3.5 14.5q0 16 4 39t4 37q0 12 -7.5 23t-17 22t-18.5 22t-13 23t-8 17t-9.5 8t-11.5 6.5t-13 12.5q-2 3 -14.5 9.5t-19.5 6.5q-15 0 -25.5 -4.5t-20.5 -9.5q-12 -6 -20 -15.5t-14 -21l-12 -23t-14 -20.5q-1 -1 -4.5 -5t-7.5 -8.5
t-7 -9t-3 -5.5q0 -9 9 -12t9 -10q0 -6 -0.5 -20t-1.5 -29t-3 -28t-5 -19q-3 -5 -7.5 -9.5l-9 -9t-8 -10.5t-3.5 -13t4.5 -11.5t11 -7.5t14 -4.5t14.5 -2.5q1 -13 1 -24.5t5 -25.5q3 -7 9.5 -10.5t8.5 -13.5q2 -8 0.5 -14t1.5 -12t10.5 -12.5t15.5 -13t15.5 -12t12.5 -10.5
q3 -3 4.5 -7.5t3 -8.5t5 -7t11.5 -3h12t17 0.5t17 2t12 3.5t16 10t14 10q5 7 5 13t5 11q10 11 15 23.5t8.5 27t6.5 30.5t8 33q2 8 7 21t5 21zM882 -54q0 -15 -4.5 -23.5t-10.5 -17t-12 -18.5t-9 -27q-2 -9 -8 -18t-14 -18t-16.5 -17t-13.5 -13q-3 -4 -16 -4h-16
q-1 0 -10.5 -7t-11.5 -9q-11 -9 -24.5 -13.5t-33.5 -4.5q-23 0 -36 0.5t-30 3.5q-32 6 -51.5 16.5t-38.5 29.5q-5 5 -9 5.5t-9 6.5q-5 5 -12 6t-10 8l18 24q-5 2 -13 2.5t-17 0.5t-17.5 0.5t-14.5 2.5q-9 4 -12.5 9.5t-5 11.5t-3.5 12t-9 11q-8 6 -17.5 11.5t-18.5 10.5
t-19 6.5t-27 1.5q-7 0 -11 -3.5t-7.5 -7.5t-8 -7.5t-11.5 -3.5h-16q-9 0 -14 -6t-9 -15t-6 -19.5t-5 -19.5q-4 -11 -16.5 -17.5t-29.5 -6.5q-40 0 -67 23t-27 59q0 6 4 15t10 17.5t12.5 15t11.5 8.5q8 3 23 2t21 4q5 5 6.5 12t9.5 10q5 2 11.5 2.5t12.5 3t10 7t4 13.5
q0 5 -5.5 5.5t-10.5 0.5h-16q-8 0 -18.5 4t-21 9.5t-19.5 12t-13 12.5q-6 7 -4.5 16.5t-5.5 15.5q-11 10 -21.5 18.5t-20.5 19.5q-5 5 -6 17t-4 19q-7 13 -14.5 25t-14 25.5t-11 30t-4.5 39.5l28 126q-2 8 -1 12t1 12q0 18 9 29.5t17 26.5q13 23 22.5 42t21 34t27.5 26.5
t43 19.5q16 5 28 13t23.5 16t24.5 14.5t32 8.5q12 1 26 1.5t28 0.5t26.5 1.5t21.5 6.5q11 1 17 2.5t15 1.5q4 -2 8 -3q6 -3 8 -3l40 12q21 -7 37 -15.5t33 -14.5q11 -4 25 -4.5t25 -5.5q8 -4 16 -13.5t16 -14.5q9 -6 25.5 -11.5t24.5 -14.5q4 -4 5.5 -10t2.5 -12t2.5 -11.5
t5.5 -8.5q8 -6 17 -9.5t13 -12.5q5 -11 12.5 -22.5t9.5 -21.5q2 -13 6.5 -27.5t5.5 -24.5q3 -28 7.5 -57t4.5 -73q0 -16 -9 -30.5t-9 -25.5q0 -7 3 -15.5t3 -18.5q0 -15 -4.5 -24t-10.5 -16.5t-12 -16t-9 -21.5q-2 -11 -9 -24t-16 -24.5t-20 -19.5t-21 -8q-8 0 -16 3t-18 3
q-7 0 -14 -12.5t-16 -17.5l-40 -10q-8 -2 -11.5 -4.5t-5 -5.5t-2.5 -7t-5 -9q10 -5 11.5 -7.5t2 -5t3 -4.5t13.5 -5q5 -2 16 -4.5t23 -5.5t21.5 -6t11.5 -6q5 -7 17.5 -10.5t24.5 -3.5q18 0 37.5 2.5t30.5 9.5q3 2 12 9t14 7q9 0 14.5 -6.5t9.5 -11.5q12 6 22 15t30 9
q3 0 6.5 -4t7 -9t6 -11t2.5 -10z" />
    <glyph glyph-name="R" unicode="R" horiz-adv-x="820" 
d="M476 464q0 10 -2.5 14t-5.5 7t-5.5 6t-2.5 11q0 15 -7.5 28t-19.5 22.5t-26.5 15.5t-28.5 6q-18 0 -24 -18.5t-6 -37.5v-16q0 -14 -11 -19t-17 -13q6 -5 15 -6t17 -6q-2 -10 -5 -19t-3 -21q0 -22 11.5 -27t32.5 -5q27 0 42.5 13.5t25.5 30.5q4 6 12 15.5t8 18.5zM828 66
q-3 -6 -6 -9t-6 -4.5t-7 -3t-9 -5.5q-8 -5 -12 -14.5t-12 -15.5t-21.5 -12t-29 -10.5t-32 -7t-29.5 -2.5q-17 0 -27.5 2.5t-19 6.5t-17 8.5t-20.5 8.5q-20 7 -30 12t-16 26q-2 4 -10 13t-17.5 18.5t-18 18.5t-10.5 14q-6 13 -11.5 23.5t-10 22t-7.5 25t-3 31.5v36l-6 6
q-6 6 -6 8q-12 23 -27 32.5t-47 9.5q-3 0 -6.5 -5.5t-6.5 -13t-5 -15.5t-2 -12q0 -10 3 -16.5t7 -11.5t7 -11t3 -15t-7.5 -22t-10.5 -20q8 -4 12.5 -19l7.5 -25q2 -7 2 -22t4 -20q10 -11 22 -22t26 -18q6 -3 16 -6.5t10 -13.5q0 -8 -6 -8.5t-14 -1.5h-70q-14 -2 -23.5 -4
t-24.5 -2q-26 0 -44 7t-44 7q-15 0 -35.5 -7t-40.5 -7q-14 0 -23 1t-23 -1q-8 4 -17 6.5t-17 6.5t-13 11t-5 20q0 11 4.5 17t11.5 10t14.5 7t13.5 8q6 6 12.5 17t12 24.5t8.5 28t3 26.5v288q3 16 1.5 26.5t-4.5 18.5t-6.5 16t-6.5 19q-1 5 -2 13t-4 11q-4 4 -11 6.5
t-14.5 5.5t-13 7t-5.5 11v16q0 12 -3 16t-3 16q0 11 16 16.5t28 5.5q31 0 55.5 -4t50.5 -10l222 20q23 -2 44 -10t38 -10q22 -2 35.5 -2.5t32.5 -5.5q12 -3 22 -12t20 -14q16 -8 26.5 -15t18.5 -15.5t13.5 -21t11.5 -30.5q1 -5 4 -9.5t5.5 -9.5t4.5 -12t2 -17q0 -21 -3 -35
t-7.5 -24.5t-10 -21t-9.5 -25.5q-5 -17 -23 -30.5t-33 -21.5q-7 -4 -16.5 -6t-9.5 -12q0 -8 5 -12.5t12 -7.5t14.5 -6t12.5 -6q7 -5 7.5 -11t4.5 -13q11 -23 23.5 -42t20.5 -42q2 -5 8.5 -14t14 -19t15 -17.5t12.5 -9.5q14 -5 26 -5.5t24 -6.5q10 -5 16.5 -10.5t23.5 -7.5
v-24z" />
    <glyph glyph-name="S" unicode="S" horiz-adv-x="630" 
d="M584 204q0 -32 -8.5 -54.5t-19.5 -43.5q-10 -20 -23.5 -34t-24.5 -32l-4 -4t-6.5 -6t-7 -5.5t-4.5 -2.5q-3 0 -4 3t-4 3q-20 0 -36 -9t-30 -15q-16 -7 -33.5 -6t-34.5 -4q-13 -3 -25.5 -7.5t-30.5 -4.5q-25 0 -46 5t-40.5 11t-38 11t-39.5 5h-32q-11 0 -16.5 5.5t-8 14
t-2.5 19t-1 19.5q-2 17 -8 30t-6 30q0 7 2 8t5 0.5t5 0.5t2 7q0 8 -3 15.5t-3 18.5q0 26 8 39t34 13q4 0 8 -4t7.5 -9t6.5 -10t6 -7q8 -5 17.5 -7.5t16.5 -10.5q5 -5 6 -11t4 -13q5 -11 12.5 -13.5t17.5 -10.5q8 -6 15.5 -13.5t15.5 -13.5t18.5 -10.5t24.5 -4.5q20 0 38 1
t31.5 5.5t21 12.5t7.5 23q0 8 1.5 12t-0.5 10q-2 5 -5.5 13t-7.5 13q-5 6 -14.5 16.5t-20.5 10.5q-5 0 -16.5 4t-22.5 6q-7 6 -12 11t-10.5 8.5t-12.5 7t-17 6.5q-5 1 -5 3t1 4.5t2 5.5t-3 7q-5 6 -9 5t-18 -1q-11 0 -21.5 2t-16.5 2q-15 0 -22.5 6l-17.5 14q-8 7 -13.5 6.5
t-10.5 9.5q-3 6 -8 19t-10.5 28t-10 28.5t-6.5 20.5q-4 12 -3.5 21t0.5 27q0 20 5.5 28t10.5 22q2 6 2 19t2 21q3 14 16.5 24t21.5 18q13 13 21 23t16.5 18.5t20.5 16t32 14.5q9 3 25.5 7.5t32.5 4.5q14 0 25 4t23 4h60q27 -6 53.5 -10t50.5 -12q10 -3 22 -3t20 -5
q4 -3 8 -14t7 -24.5t5 -26.5t2 -19q0 -15 -9 -23.5t-9 -16.5q0 -5 1.5 -6.5t3.5 -1.5h4.5t4.5 -2q7 -7 11.5 -19t4.5 -23q0 -17 -6 -24.5t-22 -7.5q-20 0 -31 11t-19 23q-5 7 -7 15t-13 13q-22 11 -34.5 22.5t-26.5 19.5q-14 10 -31 15t-40 5q-29 0 -45.5 -11.5t-16.5 -38.5
v-24q7 -7 14.5 -7t15.5 -5q5 -3 6 -8t6 -8q18 -10 31.5 -14.5t32.5 -11.5q15 -5 25 -15t25 -15q11 -4 28 -10.5t28 -13.5q7 -4 16 -8t18 -9t15.5 -11.5t8.5 -15.5q2 -6 1 -13.5t1 -12.5q4 -9 12.5 -14.5t13.5 -15.5q10 -23 15 -41t5 -47z" />
    <glyph glyph-name="T" unicode="T" horiz-adv-x="718" 
d="M706 576q-2 -14 -6 -26t-7.5 -23.5t-6 -24.5t-2.5 -30v-26q0 -8 -7.5 -13t-22.5 -5q-7 0 -12.5 4.5t-9.5 7.5q-8 6 -9.5 12t-4.5 16q-3 11 -3.5 19.5t-1.5 15t-4.5 11.5t-12.5 10q-8 5 -10.5 15.5t-7.5 16.5q-4 5 -12 8.5t-25 7.5q-6 0 -15.5 1t-15.5 1q-13 -1 -19 -0.5
t-9 0.5h-4l-6 -64v-230v-20.5t0.5 -11.5t2 -10.5t5.5 -17.5q1 -2 1.5 -11.5t1 -20.5t1 -20.5t0.5 -11.5l-1 -2v-1q-1 0 -1 1q-1 -1 -2 -5q-2 -8 -2 -19q0 -24 10.5 -39.5t24 -29l27 -27t18.5 -34.5q-10 -5 -27.5 -7.5t-28.5 -2.5q-14 0 -23.5 6t-24.5 6h-132q-21 0 -36.5 -4
t-35.5 -4h-48q-4 0 -12 3t-15.5 7.5t-13 9.5t-5.5 8q0 16 10 28t23.5 22t26.5 20t20 24q5 8 3.5 22t0.5 26q2 11 5 21.5t3 26.5q0 18 -3 31t-3 33v86q0 26 -3 47t-3 49q0 14 4 27.5t4 22.5q0 7 -0.5 9.5t-3.5 6.5l-6.5 8t-14 17.5t-14 17t-7.5 7.5q-11 0 -26 -7t-22 -11
q-12 -8 -23 -15.5t-17 -19.5q-7 -14 -14 -31t-14 -32q-5 -11 -14 -16.5t-14 -19.5h-10q-17 9 -21.5 33t-4.5 49v98q-2 13 -5 17t-3 17q0 7 5 14.5t12.5 14t16 11t14.5 4.5q13 0 23.5 -3.5t20 -7.5t18.5 -7.5t20 -3.5q15 0 29 6t37 6q36 0 66.5 -8t63.5 -8q20 0 28 5.5
t22 8.5q12 3 20 3.5t14.5 0.5h14.5t21 2q12 2 19.5 7t20.5 5q10 0 17 -3.5t14 -7.5t14 -7.5t17 -3.5q7 0 25.5 5t39.5 7h53q6 0 11.5 -6.5t9.5 -15.5t6.5 -19.5t2.5 -18.5v-40z" />
    <glyph glyph-name="U" unicode="U" horiz-adv-x="840" 
d="M818 622q0 -8 -1.5 -11t-4.5 -4t-6.5 -2t-7.5 -5q-12 -12 -26 -22t-22 -24q-5 -7 -8 -19t-4.5 -25t-2.5 -26t-1 -22v-64q0 -20 1 -35.5t5 -32.5v-90q0 -30 -7 -60t-15 -56q-4 -14 -4.5 -26.5t-11.5 -21.5q-5 -4 -12 -5t-12 -5q-8 -6 -24.5 -14.5t-27.5 -13.5
q-11 -4 -15.5 -7.5t-8.5 -6.5t-9.5 -6t-18.5 -6q-12 -3 -19 -10.5t-23 -7.5h-16q-11 0 -32 -2.5t-36 -5.5h-72q-23 0 -40 6l-34 12q-18 6 -34.5 9.5t-32 7t-30.5 9t-29 14.5q-12 8 -18.5 15t-11.5 15t-9.5 18t-10.5 24q-2 4 -6 13t-7.5 19.5t-6 21t-2.5 18.5q0 12 -1 27.5
t-1 26.5q0 3 0.5 12.5t0.5 21t0.5 22t0.5 16.5q0 11 -5 21.5t-3 18.5q2 7 6 12.5t4 15.5q0 16 -3 22t-6 10.5t-6 11t-3 22.5q0 6 2 9t5 4.5t5 3t2 5.5v64q0 6 -4 14.5t-9 16t-11 13.5t-10 8q-10 3 -18 4t-14 8t-8 24t-2 28q0 9 5 13.5t12.5 6.5t16 2.5t16.5 1.5
q12 -1 17.5 -0.5t10 1.5t10.5 2t18 1h94q28 0 53 -6t55 -8q9 0 24.5 -2t30.5 -6t26 -9.5t11 -14.5q0 -12 -3.5 -18.5t-9.5 -9.5t-14.5 -4.5t-18.5 -3.5q-6 -1 -13 -7t-13.5 -14t-11 -17t-4.5 -16v-26q0 -15 -5 -30t-5 -26q0 -8 5 -12t7 -12q3 -14 3.5 -30t0.5 -26
q0 -17 -3 -35t-3 -37v-34q0 -7 -3 -11.5t-3 -12.5q0 -25 14 -47.5t28 -36.5t31.5 -29t44.5 -15h32q9 0 12.5 1.5t6 3.5t4.5 4.5t7 4.5q13 5 29 4.5t29 3.5t18.5 16t5.5 28v34q0 15 4 29t9 28.5t9 30.5t4 36q0 16 -5 27.5t-5 28.5q0 15 5 30t5 26q0 5 -4.5 12t-5.5 12
q-3 18 -4.5 29t-3.5 19t-7 14.5t-15 17.5q-5 5 -11 5.5t-13 4.5q-8 5 -15 12.5t-21 11.5q-7 2 -17.5 4t-10.5 10t1 20t11 22t27 15t25 5q11 0 21.5 -6t24.5 -6l16 12q10 4 25 6t25 2q7 0 17.5 -8t24.5 -8h58q7 0 14 3.5t18 0.5q13 -4 15.5 -18t2.5 -28z" />
    <glyph glyph-name="V" unicode="V" horiz-adv-x="766" 
d="M790 630q0 -5 -6 -8t-8 -6q-5 -7 -6 -13t-8 -11q-6 -5 -12.5 -5t-11.5 -5l-26 -26q-5 -5 -6 -8t-1 -6v-7t-3 -11l-5 -12.5t-7 -15.5t-8 -15t-8 -11t-8.5 -3.5t-7.5 -4.5q-6 -8 -8 -15.5t-3.5 -15t-4 -15t-8.5 -14.5q-5 -6 -11.5 -17.5t-12.5 -16.5q-12 -9 -19.5 -28
t-12.5 -32q-9 -23 -14 -45.5t-16 -46.5q-4 -8 -9.5 -11t-10.5 -11q-10 -16 -17 -36.5t-15 -37.5q-8 -15 -16.5 -20.5t-15.5 -19.5q-6 -11 -11 -27t-11.5 -31.5t-14 -28.5t-17.5 -19q-5 -3 -14.5 -2.5t-17.5 0.5q-9 0 -12.5 1t-5 3t-3 5t-5.5 7q-18 18 -36 40t-26 50
q-1 4 -0.5 11.5t-1.5 12.5q-3 6 -8.5 10.5t-7.5 13.5q-3 16 -10.5 28.5t-15.5 23l-16 21t-14 23.5q-11 24 -13 42t-9 38q-6 17 -20.5 30.5t-17.5 29.5q-2 7 -0.5 13t-1.5 11t-11 10t-11 10q-10 16 -18.5 36t-17.5 38q-4 7 -8 17.5t-9 21t-11 19.5t-12 14q-9 7 -22 15.5
t-25 19t-20.5 23t-8.5 28.5q0 8 11.5 10.5t16.5 5.5q11 6 20 14t28 8h74q15 -11 30.5 -15.5t41.5 -4.5q23 0 40 6t40 10h90q1 0 8.5 -2.5l16.5 -5.5t16.5 -6.5t8.5 -5.5l4 -20q7 0 3.5 -8.5t-3.5 -15.5q-2 -9 -6 -13.5t-9.5 -7.5t-11 -5.5t-11.5 -7.5q-7 -5 -10 -12.5
t-10 -13.5q-3 -3 -11.5 -6.5t-8.5 -9.5q0 -21 10.5 -42.5t17.5 -37.5q5 -9 6 -19.5t4 -20.5q5 -15 15.5 -27t14.5 -29q2 -7 1 -13t1 -11q5 -12 12.5 -22.5t11.5 -29.5q15 8 20.5 25.5t13.5 32.5q3 6 9 9.5t9 10.5q2 5 3 8t3 8q4 9 6.5 25.5t9.5 24.5q2 3 11 10t9 12
q0 8 -5 13t-5 11q0 14 8 23t8 25v34q0 11 -6.5 17t-15.5 14q-12 9 -26 19t-14 28q0 17 5.5 27.5t22.5 10.5q14 0 27.5 3t32.5 3q22 0 36 -3t30 -7h52q13 2 22 5t22 3q4 0 13.5 -5t20 -12t18.5 -14t8 -11z" />
    <glyph glyph-name="W" unicode="W" horiz-adv-x="1040" 
d="M1054 630q0 -15 -6.5 -26t-16 -19t-20 -15t-17.5 -14q-5 -5 -5.5 -11.5t-4.5 -14.5q-3 -7 -9 -10t-11 -10q-13 -21 -20 -38.5t-10 -45.5q-2 -14 -5 -23.5t-7.5 -18t-9 -16t-8.5 -16.5q-5 -10 -5.5 -22t-8.5 -20q-6 -6 -12.5 -5.5t-9.5 -8.5q-4 -10 -2 -19.5t-2 -20.5
t-13 -19t-9 -27q0 -16 -6.5 -32t-15 -32t-17.5 -31.5t-13 -30.5q-3 -12 -10.5 -30.5t-18 -36t-23.5 -30.5t-26 -13q-23 0 -41.5 14t-18.5 38v16q0 16 -8 24t-17 14t-17 12.5t-8 17.5v26q0 11 -3.5 25t-9 28t-12 26t-13.5 19l-11 11t-9 13q-3 7 -4 17.5t-2.5 20t-5.5 16
t-14 6.5l-12 -16q-8 -10 -12.5 -27.5t-13.5 -28.5q-4 -5 -8.5 -7t-7.5 -7q-5 -11 -3.5 -20.5t-0.5 -23.5q-13 -26 -16 -52l-8 -10q-4 -4 -7.5 -8t-7.5 -7q-2 -11 -4 -20.5t-5 -14.5q-6 -10 -10.5 -14.5l-8 -8t-7.5 -8t-10 -13.5q-5 -7 -8 -16t-8 -17t-13 -13.5t-23 -5.5
q-6 0 -16.5 4.5t-20.5 11t-17.5 15t-7.5 17.5q1 3 3 7q1 3 2 5.5t1 3.5q-2 1 -4 3l-3.5 3.5l-3.5 3.5q-5 4 -11 10q-15 23 -22 52.5t-18 55.5q-8 18 -12 36t-12 36q-7 16 -15.5 27t-8.5 31q0 10 4 18.5t4 21.5q0 3 -5 8t-11.5 10.5t-13 10t-8.5 7.5q-14 20 -21.5 45.5
t-12.5 52.5q-3 20 -10.5 31t-15.5 25q-12 21 -22 42.5t-30 35.5q-7 7 -18.5 16t-11.5 22q0 5 5 10t12 8.5t14.5 5.5t12.5 2q15 0 36.5 -3t35.5 -7h140q22 0 38.5 4t35.5 4q5 0 10 -9t6 -13q1 -6 2 -10.5t1.5 -9t0.5 -10.5v-16q0 -6 -3 -9t-6.5 -4t-7.5 -1.5t-7 -3.5
q-5 -5 -9.5 -14t-4.5 -18q0 -18 10 -32t10 -30v-24q0 -11 5 -13t7 -11t0 -16t0 -16q3 -12 8.5 -21.5l11 -19t10 -21t4.5 -26.5q-2 -3 -3 -6q-3 -5 -3 -10q0 -6 5 -13t11 -7q2 0 8 4.5t8 3.5q2 10 4 17t2 19q0 8 11 18.5t15 15.5q6 9 14.5 24t16 31.5t12.5 32.5t5 28
q0 4 -3 6l-6 4t-6 4.5t-3 7.5v18q0 11 -10 20.5t-18 13.5q-8 5 -9 10t-5 12q-5 7 -12.5 12.5t-15 11.5t-13 13.5t-5.5 20.5q0 18 16 30t34 12q14 0 24 -5t26 -5q11 0 21.5 2t20.5 4l100 -14q19 2 37 9t29 7q6 0 16 -3t19.5 -7.5t16 -10.5t6.5 -11q0 -8 4 -13t4 -15
q0 -7 -4 -10.5t-10 -6.5t-11.5 -6t-8.5 -7q-10 -15 -18 -28.5t-8 -39.5q0 -8 1.5 -12t4 -6.5t4.5 -5t4 -8.5q4 -16 7 -34t3 -36v-24l18 -12q8 -11 8.5 -22t3.5 -28q2 -14 10 -28t22 -18q1 8 6.5 15.5t5.5 18.5q18 14 21.5 36t10.5 46q5 17 3.5 31.5t4.5 26.5q4 8 13 16.5
t9 17.5v76q-8 8 -18.5 11t-21.5 9q-12 6 -19 25.5t-7 36.5q0 13 8 16.5t22 3.5q15 0 27 -4t31 -4q11 0 19 1.5t15.5 3.5t15 3.5t18.5 1.5q20 0 35.5 -4t32.5 -4q13 0 22.5 4t19.5 4q5 0 8 -4.5t5 -11t2.5 -13.5t0.5 -13z" />
    <glyph glyph-name="X" unicode="X" horiz-adv-x="858" 
d="M863 26q0 -6 -8.5 -11t-19.5 -9t-22 -6.5t-16 -3.5q-8 -2 -15.5 -1t-14.5 1q-19 0 -32.5 1t-27.5 5h-135q-5 3 -10 4.5t-14 1.5q-10 0 -17.5 -2l-15 -4t-16 -4t-19.5 -2q-25 0 -46.5 7t-21.5 33q0 10 4.5 16t10.5 10.5l12 9t9 10.5q1 2 2 8.5t2 13.5t2 13t1 7q0 6 -5 15
t-11 18.5t-12 18t-9 12.5q-4 6 -8 14t-8.5 15t-11 12t-15.5 5q-7 0 -13.5 -6t-12.5 -14.5t-11 -17.5t-9 -14q-5 -6 -11 -11t-12 -10.5t-10 -13t-4 -19.5q0 -20 7.5 -31.5t17 -21t17 -20t7.5 -29.5q0 -6 -3.5 -9t-8.5 -4.5t-10.5 -2t-9.5 -2.5q-15 -8 -38.5 -10t-46.5 -2h-94
q-16 -2 -30 3t-28 5h-19t-24 2.5t-20.5 7.5t-8.5 16q0 7 6 12.5t13.5 9l15 7t11.5 7.5q7 9 13.5 16t14.5 14q6 5 17 9t19 7q16 6 25 11t20 17q15 17 34.5 39t34.5 39q8 8 12.5 20t12.5 20q13 14 27.5 24t22.5 28q-3 5 -2 10t-1 11l-16 16t-16 13q-10 7 -19 18.5t-15 19.5
q-5 7 -7.5 12.5t-4.5 11t-4.5 12.5t-6.5 16q-2 4 -7 10.5t-11.5 12.5t-12.5 11.5t-10 7.5q-7 5 -15 9.5t-13 12.5q-5 9 -8 14.5t-5.5 9.5t-6.5 8t-12 10q-7 5 -17.5 5t-14.5 9q-5 13 -15 20t-20 13t-17.5 15t-7.5 26q0 12 12.5 16t20.5 6q14 4 33.5 6t38.5 2q22 0 43 -6
t40 -6h123q5 3 13 5.5t17 4.5t17 3t13 1q6 0 14.5 -3.5t15.5 -9.5t12 -13.5t5 -15.5q0 -6 -3.5 -12t-7.5 -12.5t-7.5 -14t-3.5 -17.5q0 -23 13 -44.5t24 -35.5q6 -7 9.5 -16.5t8 -17.5t12 -14t19.5 -6l11 16q9 14 12.5 26t16.5 20q12 8 21 24.5t9 35.5q0 14 -9.5 20
t-21.5 11t-21.5 12.5t-9.5 24.5q0 13 15.5 23.5t29.5 10.5h69q38 0 71 2t70 2q10 0 21.5 -1t21 -4t15.5 -9.5t6 -17.5t-4.5 -17.5t-11.5 -11t-15.5 -7t-15.5 -6.5q-23 -12 -41 -29t-38 -33q-5 -5 -11.5 -8.5t-8.5 -11.5q-4 -11 -2.5 -17.5t-5.5 -14.5q-5 -7 -15 -10.5
t-15 -9.5q-14 -15 -27 -28.5t-24 -33.5q-4 -7 -15 -17.5t-11 -20.5q0 -1 3 -4.5t7 -7.5t7.5 -7l3.5 -3q7 -9 12 -15t9 -11t8.5 -10.5t11.5 -15.5q6 -9 15.5 -26t17.5 -25q12 -7 28.5 -22.5t26.5 -26.5q11 -12 18 -30.5t18 -29.5q8 -8 23.5 -16t23.5 -14q6 -5 14.5 -14.5
t19.5 -16.5q16 -11 25 -20t9 -23z" />
    <glyph glyph-name="Y" unicode="Y" horiz-adv-x="728" 
d="M767 623v-9.5t-2 -6.5q-4 -5 -9.5 -7t-11.5 -2.5t-12.5 -1t-12.5 -3.5q-11 -6 -24.5 -21.5t-24.5 -23.5q-8 -5 -18 -9t-17 -12q-6 -6 -10 -15t-7.5 -18.5t-8.5 -18t-13 -13.5q-22 -15 -38.5 -36t-30.5 -43q-12 -19 -28 -36t-24 -40q-5 -17 -3.5 -27t-4.5 -22h10v-10
q0 -17 -4 -28t-4 -29q0 -15 4.5 -33.5t11.5 -36.5t15.5 -33.5t15.5 -23.5q5 -5 12.5 -9t14 -8.5t11.5 -11.5t5 -18q0 -13 -11 -19.5t-27 -8.5t-34 -2h-31t-22.5 1.5t-18 3.5t-17.5 3.5t-20 1.5h-83q-13 0 -25.5 -4t-26.5 -4q-20 0 -42.5 8t-43.5 8q-5 0 -8.5 -0.5t-9.5 0.5
v14q7 10 20 17t26.5 13.5t23.5 15.5t10 24q0 9 7 18q3 4 7 8q0 17 1 32q1 13 1.5 26.5t1.5 21.5l-7 49q2 17 3.5 30t9.5 23q-7 6 -15 11.5t-15 11t-12 12.5t-5 18q0 10 2 14t-2 12q-12 5 -19 11.5t-11.5 14t-8 16.5t-9.5 20q-12 22 -26 41t-26 42q-7 14 -16 19t-23 12
q-8 4 -18 13.5t-18 18.5q-10 11 -20 23q-11 4 -21 9q-8 5 -15.5 10t-9.5 12l15 20q21 2 36.5 4.5t32 4t36.5 2.5t49 1h71q20 0 43.5 3.5t43.5 8.5h54q9 -2 18.5 -4.5t17.5 -7t13 -11t5 -17.5q0 -3 -3 -9t-6 -11l-8 -14q-1 -6 -2 -11t-1.5 -9t-2.5 -6q-5 -5 -14.5 -8.5
t-9.5 -17.5q0 -12 4.5 -20.5t10 -16t10 -15t4.5 -17.5q0 -2 4 -5.5t9 -8.5q6 -5 14 -11q3 -10 7 -18q3 -7 6 -12t5 -5q12 0 14.5 9.5t6.5 17.5q5 10 18 23.5t21 21.5q7 8 7.5 15.5t3.5 16.5q3 10 12.5 17t9.5 22q0 13 -10 20.5t-22.5 14.5t-22.5 15t-10 22q0 9 9 9.5t15 4.5
q14 11 27 17.5t40 6.5q19 0 34.5 -3t29.5 -6t28.5 -6t32.5 -3h43q10 0 21 -1.5t20.5 -6t15.5 -12t6 -19.5z" />
    <glyph glyph-name="Z" unicode="Z" horiz-adv-x="756" 
d="M722 164q0 -21 -6.5 -28.5t-11.5 -19.5q-4 -8 -2.5 -19.5t0.5 -22.5q-3 -31 -18.5 -53.5t-47.5 -22.5q-19 0 -35.5 7t-30.5 7q-17 0 -42.5 -4t-39.5 -8l-60 6l-60 -6q-11 -1 -25.5 0t-30 3t-30 3.5t-24.5 1.5q-17 0 -33.5 2t-32.5 2q-13 0 -21 -7t-25 -7h-32q-5 0 -20 4
t-20 4q-12 0 -19 -0.5t-11.5 2t-6 10t-1.5 24.5q0 10 10.5 16.5t15.5 11.5q4 5 12.5 19t11.5 21t1 12.5t1 11.5q5 8 12 11.5t14 10.5q8 8 17 23l15 25q11 17 23.5 26.5t26.5 25.5q13 15 18 38.5t16 39.5q3 4 7.5 7.5t9 7.5t8 9.5t3.5 13.5q0 3 3 8t7 10t7 10t3 8q7 3 12 5.5
t9.5 6t9 10t11.5 18.5q9 17 20.5 36t21.5 34q2 3 8 7.5t12 9.5t11 10.5t5 10.5q0 12 -13.5 16t-26.5 4q-5 0 -9 -3t-8.5 -6t-9.5 -6t-13 -3q-5 0 -10 1t-10 3l-12 4l-30 -8q-7 -2 -13 -4q-5 -2 -11 -3t-10 -1q-13 0 -24.5 -8t-21 -19.5t-18.5 -23.5t-18 -19q-5 -5 -13 -7
t-13 -7q-3 -3 -5 -8t-4.5 -9.5t-6.5 -7.5t-12 -3q-15 0 -22 8t-12 18q2 16 6 35.5t4 36.5v18q0 20 6 36t6 36v16q0 20 20 30t38 10q13 0 23 -9t25 -9q5 0 13 4.5t13 5.5q14 2 29 1t29 -1q34 0 62.5 -0.5t59.5 -5.5h96q11 -2 23 -6t23 -4t19 4t21 4h26q11 0 23 4t27 4
q5 0 14 -3.5t17.5 -9t14.5 -12t6 -13.5q0 -14 -5 -24.5t-12 -19.5t-15 -17.5t-14 -18.5q-11 -18 -21.5 -42t-26.5 -38q-12 -11 -22.5 -16t-17.5 -22q-6 -15 -19.5 -29t-18.5 -29q-3 -10 -4.5 -17t-3.5 -12t-5 -10t-9 -11q-10 -10 -15 -24t-15 -24q-6 -6 -14.5 -10.5
t-13.5 -9.5q-4 -4 -10 -11.5t-6 -12.5q0 -8 5 -8.5t5 -7.5q0 -9 -7 -9.5t-13 -4.5l-24 -44l-34 -34q-2 -6 -2 -10t0.5 -7t5.5 -3q18 0 28 5t24 5t37.5 -3t38.5 -3q5 0 9 4.5t7 5.5q14 4 29 4t28 1.5t23 6.5t14 20q5 18 16 23.5t22 16.5q6 6 10.5 14t10.5 15t15 12t24 5
q7 0 11.5 -9t6.5 -21.5t3 -26t1 -21.5z" />
    <glyph glyph-name="bracketleft" unicode="[" horiz-adv-x="500" 
d="M450 602q-12 -14 -16 -16t-16 -2q-8 0 -10 -1t-1.5 -1t1.5 2t-2 8l-10 6q-5 -6 -4.5 -8.5t1.5 -3.5t-0.5 -0.5t-10.5 0.5l-26 8h-6h-14l-22 -2q-3 -9 -3.5 -13t-0.5 -15l-2 -20l2 -31v-14l-2 -16l-6 -12l-2 -14l8 -34l2 -10v-8v-22l-12 -8v-30l2 -20l6 -56v-28v-6l-2 -26
v-6l-2 -26l-4 -14l-4 -12l4 -10l10 -20l2 -14l-2 -18q0 -5 -1 -10t-3 -10v-8v-2l-6 -29l2 -20l2 -22l2 -12l-4 -80v-2q0 -25 20 -28l6 2l14 4l12 2l36 2l12 -4l12 -6l6 -2q4 3 9 7t10 6.5t9.5 2t7.5 -5.5q4 -7 6 -9.5t3.5 -4.5t2 -5.5t0.5 -10.5v-10v-16v-12l-8 -6l-4 -4h-2
l-12 -6q-3 -2 -7 -2.5t-15 -3.5l-20 8h-2q-2 0 -4 -1t-4 -1q-4 -2 -6 -4q-4 -2 -7 -3t-5 -2q-3 -1 -6 -1l-8 2l-12 2l-16 8h-8l-28 2l-20 -2q-8 -5 -10 -5.5t-4 -0.5h-6q-10 -2 -11 -2h-3l-26 4l-22 10h-2l-6 -2l-12 -6l-12 -4h-4l-10 2h-18q-4 0 -6 2q-4 2 -8 6
q-12 15 -12 34v2l2 6v8v38l-6 22l-2 28l2 20l2 14v14l2 16v16v22v6l-2 16l-4 22v18l2 10l8 44l4 29l-2 28l-2 28l-4 24v24v30v14l10 38l-2 38l2 33l-4 36l-2 28l-2 26v4v11.5t2 16.5l4 30v24q0 2 -1 5t-3 11q-2 3 -2 6.5v5.5v2l2 10l10 20l2 6l8 4l18 -10h4q5 3 7 3.5t5 2.5
q4 2 6 2q2 2 4 2l30 2h10l10 -2l18 -4l18 -8l4 2l8 4l16 4l14 4l12 -2l4 -4l8 -4l20 4l4 -2l4 -4l14 -2h4q6 0 16 2l8 2l10 -6l6 2l8 6q8 4 18 4q20 0 28 -11.5t8 -38.5v-10z" />
    <glyph glyph-name="backslash" unicode="\" horiz-adv-x="278" 
d="M282 -86v-10t-8 -2h-88q-5 17 -14.5 27.5t-17.5 24.5q-6 11 -4.5 28.5t-3.5 29.5q-5 11 -12.5 25.5t-9.5 26.5q-5 25 -5 42.5t-7 41.5q-4 14 -10.5 26.5t-9.5 27.5q-5 20 -5 43.5t-7 44.5q-7 20 -14 42t-12 44q-2 11 -2.5 20t-1 17.5t-2 17t-4.5 19.5q-2 5 -6 8t-6 8
q-5 18 -9 33t-7 29.5t-6.5 30t-7.5 33.5q-5 19 -14.5 36t-9.5 46q0 2 7.5 4.5t17 5t18.5 4.5t11 4l38 -2q19 -10 30.5 -29t18.5 -43t10.5 -50t8.5 -50q8 -45 19 -97t27 -95q6 -15 9 -32.5t5.5 -35.5t6.5 -35t11 -31q12 -23 20 -52t15 -60.5t14 -65.5t17 -68q2 -9 1 -16
t-1 -16z" />
    <glyph glyph-name="bracketright" unicode="]" horiz-adv-x="500" 
d="M386 342v-1v-28l-1 -39l-1 -35l1 -25l1 -9v-7q0 -3 1 -5v-9v-9l-1 -12l-1 -11l-2 -10l-2 -21l-2 -26v-21v-13l2 -19l2 -10v-19l-1 -64v-13l2 -11v-7v-12l-2 -14v-2l2 -10l-1 -44l1 -30q0 -6 -5 -11l-4 -6l-1 -1l-5 1l-2 2l-3 1h-5l-6 -3h-2l-10 -1h-2h-12l-10 1l-28 2
h-44l-39 -2l-24 -2l-6 -2h-4q-4 4 -13 6l-9 1h-7h-9.5t-3.5 -1q-2 0 -6 -4h-3q-5 4 -8 4.5t-9 0.5h-3h-1l-2 -2q-1 0 -2 -1q-2 0 -3 -0.5t-2 -0.5h-1h-2h-4q-6 0 -7 1.5t-7 2.5l-13 2l-15 14l-15 16l-1 25q-2 27 26 27q3 0 8 1.5t11 3t11.5 2.5t8.5 -1l20 -1l16 -7
q6 -3 9 0.5t11 3.5q11 0 15 -0.5t10 -4.5l4 -1l7 2l6 2q0 9 2 13.5t3 13.5l3 7l1 9l-1 4l-4 13l-1 8l1 20v18l2 14v9l-2 12l-1 7v30l-1 25l1 18l-1 6l2 80l1 43l1 22l2 35v13l-2 13l-1 12l-1 5l-2 6l-1 5l1 5l2 9l1 6v6l1 9l3 43v97l-4 13l-1 9l-1 24v1q0 3 1 4q0 3 1 4v3
q1 1 1 1.5t2 2.5q0 1 -1 1.5t-1 1.5q-1 4 -8 11h-2q-9 -5 -14.5 -6.5t-13.5 -1.5q-7 0 -14.5 2t-14.5 7l-10 -4l-9 -3l-9 4h-3l-14 -5l-20 1q-3 0 -7.5 3t-9 6.5t-8 8t-4.5 7.5l-8 32q6 5 12 14.5t13 11.5l56 10l4 -2h3q10 6 20 6t25 -8l7 1q4 -1 7 -1h2l2 1h2l37 6l29 1h47
l34 -4l10 -3l8 3l13 1h6l7 -2l5 -1l4 -4l3 -4l3 -11l1 -3v-1v-7v-3t1 -7v-11v-3v-30l1 -15l-5 -60q0 -7 -1 -10v-3v-1l3 -62v-11v-13l1 -15l1 -6l-1 -33v-12h2z" />
    <glyph glyph-name="asciicircum" unicode="^" horiz-adv-x="560" 
d="M506 404q0 -5 -4 -8.5t-6 -3.5q-9 0 -22.5 -1t-21.5 -1q-5 0 -8.5 4t-5.5 9l-34 23q-4 1 -7 8t-5.5 14t-5 13t-5.5 6l-11 -3q-6 5 -7 12.5t-6 14.5q-5 5 -9.5 7.5t-8.5 5t-8 6t-7 10.5q-2 7 -5 15t-8 12q-4 8 -9.5 10.5t-10.5 7.5q-4 2 -6 6t-8 4q-8 0 -14.5 -1.5
t-9.5 -7.5q-5 -7 -6.5 -14t-8.5 -10q-14 -5 -18 -11t-12 -21q-6 -13 -7 -14.5t-11 -7.5q-3 -3 -6.5 -9t-7.5 -12t-8 -10.5t-8 -4.5q-2 0 -4.5 -4.5t-6 -10.5t-6.5 -10.5t-6 -4.5q-2 0 -3.5 -3.5t-3.5 -8t-4 -8t-4 -4.5q-11 -5 -18.5 -4t-21.5 1l-26 5l-1 42q3 7 9.5 20
t11.5 18q4 2 8.5 1.5t7.5 1.5q8 5 5.5 7.5t-0.5 12.5q2 8 8 20t8 18q4 8 6.5 15t6.5 12q4 6 6 11.5t5 10.5q7 7 13 12t11 13q6 10 8 17t7 13q5 8 10.5 12t7.5 13q8 23 17.5 38t31.5 15h28.5t25.5 6q3 3 5 2.5t3.5 -2.5t3.5 -4t6 -2q10 0 18.5 -9.5t10.5 -23.5q1 -9 5 -12.5
t8.5 -6.5l9 -6t6.5 -10q2 -9 6 -16q12 -21 20.5 -34t14.5 -22t10 -15.5t8 -14.5q2 -5 -0.5 -7t1.5 -8q3 -5 8 -4.5t7 -4.5q5 -7 8 -18t7 -19t4.5 -11t2.5 -11q2 -7 6.5 -9.5t7.5 -7.5q2 -4 3 -8t3 -9q5 -7 10.5 -11.5t5.5 -20.5z" />
    <glyph glyph-name="underscore" unicode="_" horiz-adv-x="500" 
d="M506 -186q0 -27 -14 -34.5t-42 -11.5h-50q-10 -5 -22 -5.5t-26 -0.5l-86 8h-252q-8 5 -20 15t-12 19q0 13 9 25t9 33q0 9 -3 14t-3 10q0 3 5 6t11.5 5.5t13 4t10.5 2.5l6 -2q23 -3 48.5 -5.5t51.5 -2.5q18 0 32.5 1.5t28 2t27 0t30.5 -3.5l62 8h146q15 -8 40 -8v-80z" />
    <glyph glyph-name="grave" unicode="`" 
d="M326 592q-10 -8 -14.5 -18t-9.5 -12q-16 -5 -27.5 2.5t-20.5 13.5q-6 3 -13 6t-12 8q-10 11 -18 18t-20 12q-11 5 -21 6.5t-19 8.5q-6 5 -12 11.5t-12 11.5q-11 7 -25.5 15t-19.5 25q-2 9 -3 24t4 20q3 5 9 13l9 12q17 6 32 9q17 5 38 -6t29 -29q4 -10 8 -16t7.5 -10.5
t8.5 -8.5t12 -10q11 -11 15.5 -22t14.5 -25q21 -29 60 -59z" />
    <glyph glyph-name="a" unicode="a" horiz-adv-x="632" 
d="M358 169q-8 6 -13 11t-7 9.5t1 8.5q7 9 3.5 12t-5.5 12l8 16q-5 2 -10 7t-10 5q-12 0 -23.5 -9.5t-18.5 -14.5q-9 -6 -17.5 -11t-14.5 -11.5t-10 -15.5t-4 -24q0 -26 12.5 -42t39.5 -16q6 0 13.5 2t14.5 4q8 3 17 7l2 12q1 5 1.5 10t2.5 9q1 2 4 5.5t6 6.5q4 4 8 7z
M631 92q0 -10 -6 -20t-15 -18.5t-19 -15.5t-18 -10q-11 -5 -24.5 -13.5t-23.5 -16.5q-13 -11 -39 -13.5t-49 -2.5q-21 0 -41 8.5t-31 19.5q-3 3 -4.5 8.5t-3.5 10.5t-5.5 9t-10.5 4q-8 0 -16 -4.5t-16 -10.5t-15 -12t-13 -9q-3 -2 -9.5 -5.5t-13.5 -7.5t-14 -7t-11 -4
q-11 -2 -19.5 -2t-17 1t-19 2t-26.5 1q-14 0 -28 4t-27 10t-23 14.5t-16 17.5q-4 7 -8 19.5t-6 20.5q-5 16 -6.5 27.5t-1.5 30.5q0 18 7 35t17.5 32t22 27t19.5 21q15 4 31.5 11.5t34.5 11.5q9 2 19.5 9t20.5 9q13 3 24 3.5t24 4.5t27 5t26 4.5t19.5 11.5t7.5 25
q0 11 3 22.5t3 23.5q0 32 -14.5 46t-45.5 14q-15 0 -24 -5q-4 -5 -10.5 -7.5t-11.5 -4.5l-6 -11q-4 -2 -7 -8.5t-9 -11.5q-4 -2 -7 -10.5t-6 -17.5t-6 -17t-6 -9l-21 -17l-22 -4l-25 9l-26 -2l-27 18q-6 0 -8.5 2.5t-4 6.5t-3 9t-5.5 9l3 19v34l3 7l14 15l9 17l3 3q7 5 12 9
t10 5l2 5l8 1l13 10l9 4l40 21q29 3 69.5 10t85.5 7q20 0 33.5 -6t30.5 -10q8 -2 21 -1.5t21 -2.5q38 -13 62.5 -29.5t39.5 -48.5q2 -5 3.5 -16t3.5 -22q2 -13 3 -29l10 -37q-2 -11 -3 -22q-3 -20 -3 -48v-14t1 -13q1 -7 2 -15q-2 -16 -3 -31q-1 -13 -1.5 -25.5t-0.5 -19.5
q0 -5 1.5 -17t7.5 -17q14 2 22.5 -1t14.5 -3q5 0 11 5t13 5q8 0 11 -10.5t3 -19.5z" />
    <glyph glyph-name="b" unicode="b" horiz-adv-x="682" 
d="M428 216q0 26 -5.5 55.5t-17.5 54t-30 40.5t-43 16q-17 0 -26.5 -9.5t-15 -23.5t-9 -30.5t-7.5 -30.5q2 -11 3.5 -19.5t3 -16.5t2.5 -17.5t1 -22.5q0 -16 -2 -36.5t-2 -37.5q0 -21 17 -36.5t37 -15.5q11 0 27 2t21 8q11 12 15.5 29.5t10.5 34.5q5 14 12.5 26t7.5 30z
M638 250q0 -24 -0.5 -46.5t-11.5 -37.5q-5 -7 -9.5 -10t-8.5 -12q-5 -11 -6 -21.5t-2.5 -20.5t-4.5 -18.5t-11 -15.5q-5 -5 -11 -3t-13 -1q-9 -4 -12 -14.5t-10 -17.5q-6 -6 -16 -9t-18 -7q-27 -14 -55.5 -21t-72.5 -7q-23 0 -43 0.5t-39 7.5q-7 2 -13.5 7l-13 10t-13.5 9
t-14 4q-6 0 -8.5 -3.5t-3 -8l-1 -9t-3.5 -7.5q-5 -5 -15.5 -7.5t-16.5 -2.5q-17 0 -34 4t-36 4q-4 0 -13.5 -0.5t-20.5 -1.5t-21 -1.5t-15 -0.5q-20 6 -29 16.5t-9 21.5q0 12 11 17.5t19 8.5q11 5 20.5 11t9.5 23q0 10 6 16.5t6 15.5q0 14 -3 30t-3 36v76q0 4 -1 12.5
t-2.5 18t-2 19t-0.5 16.5l4 72q2 13 2 37.5v38.5v8q1 7 -7.5 16.5t-8.5 17.5q0 5 4 10.5t4 13.5q0 6 -1 16t-2.5 20t-5 18.5t-7.5 11.5q-7 5 -16 7t-16.5 5t-12.5 10t-5 22q0 25 15 31t37 11q29 6 48.5 11t36.5 11q18 6 34 14t35 18q14 7 26.5 19.5t29.5 12.5q2 0 6 -3t8 -7
l10 -10q3 -8 6 -15q2 -6 4 -12.5t2 -8.5q0 -8 -3 -13.5t-6 -10.5t-6 -10.5t-3 -13.5v-50q0 -8 1 -22.5t-3 -25.5q-2 -5 -8 -13t-6 -11q0 -10 3 -20.5t3 -23.5v-58q0 -5 3.5 -8.5t12.5 2.5q11 8 22.5 19t11.5 29q29 6 55.5 17t56.5 11q9 0 20.5 -3t23.5 -7.5t23 -8.5t17 -7
q20 -8 31.5 -16t20 -17.5t15.5 -23t17 -31.5q8 -15 17 -29t9 -39v-16q0 -15 3 -35.5t3 -40.5z" />
    <glyph glyph-name="c" unicode="c" horiz-adv-x="596" 
d="M554 380q0 -8 -5 -14.5t-12 -12t-15 -8.5t-14 -3l-25 -14l-41 1q-3 0 -5.5 3t-4.5 6q-3 4 -5 9q-6 3 -11 6q-5 2 -9.5 4.5t-6.5 4.5q-9 13 -14.5 25t-12 21t-16.5 14.5t-29 5.5q-5 0 -11 -3.5t-12.5 -8t-11.5 -10t-7 -8.5t-6 -8l-8 -10q-4 -6 -10 -12l3 -19q-1 -7 -3 -14
q-2 -6 -3 -12.5t-1 -10.5l3 -34q-6 4 -16 5.5t-14.5 -1.5t1.5 -11.5t32 -24.5q0 -21 10 -32l20 -22q8 -9 10 -17.5t10 -16.5q16 -16 42.5 -25t57.5 -9q19 0 42.5 8.5t37.5 17.5q7 4 15.5 8t16.5 4q7 0 13.5 -4.5t6.5 -13.5q0 -6 3 -15q2 -5 4 -11l-6 -14q-2 -5 -5 -10t-4 -6
q-11 -8 -21 -11.5t-21 -14.5q-12 -12 -24 -20.5t-24.5 -15t-28 -12t-35.5 -12.5q-23 -8 -48 -12t-56 -4q-19 0 -33 2t-26 6t-23.5 8.5t-25.5 9.5q-6 2 -13.5 7.5t-15.5 12.5t-15 14t-10 12q-4 5 -12 10t-16.5 10.5t-16 11t-9.5 12.5q-5 17 -13.5 41.5t-12.5 38.5
q1 10 1.5 15.5t0.5 11v11.5v16q0 17 -2 26.5t-2 23.5q0 25 6 41t15 28t19 23t18 28q8 19 24 36.5t30 31.5q12 12 37 21t49 14q4 1 9 3.5t10 4.5q5 3 11 5q9 2 19 5q8 2 17.5 3.5t19.5 1.5h94q11 -8 25.5 -14.5t29 -12.5t28 -12t23.5 -15q7 -6 15.5 -21.5t10.5 -28.5t5 -22
t3 -26z" />
    <glyph glyph-name="d" unicode="d" horiz-adv-x="704" 
d="M404 304q-2 5 -1 8.5t1 7.5q0 31 -13.5 46.5t-44.5 15.5q-1 0 -7 -2t-12.5 -5t-12 -5.5t-6.5 -3.5q-8 -8 -14.5 -13t-11.5 -10.5t-7.5 -13t-2.5 -19.5q0 -20 -4 -32.5t-4 -29.5q0 -24 6 -48l5.5 -22t8.5 -22q8 -14 18.5 -17t23.5 -13q9 -7 19 -11.5t27 -4.5t25 14.5
t11 35t3 42.5t1 38zM674 6q-5 -2 -14.5 -9t-17.5 -7q-14 0 -25.5 3t-26.5 3q-17 0 -26 -0.5t-17 -0.5t-18 -0.5t-29 -0.5q-11 -1 -21 -3q-8 -2 -15 -3t-8 0q-5 2 -10 6t-10 6q-5 1 -7 7.5t-3.5 15t-1.5 17v14.5q-18 -4 -33.5 -19t-32.5 -27q-20 -5 -38 -15.5t-42 -10.5
q-6 0 -16.5 2t-22.5 5.5t-22.5 7.5t-16.5 7q-6 4 -13.5 4.5t-15 0.5t-15 1t-12.5 6q-14 13 -23.5 18t-22.5 18t-23.5 28t-18.5 32l-24 46q-2 8 0 20.5t4 23.5q3 14 5.5 21t2.5 27v58q0 19 3.5 32t8 22.5t10 19t10.5 22.5q9 26 21.5 44t32.5 30q9 5 17 6t17 6q14 8 28 18
t42 10q23 0 47 2t45 2q9 0 21.5 -5.5t24 -14t21 -17.5t13.5 -15q1 2 7 4q3 1 6 1l7 41l-8 8q-3 4 -5.5 8.5t-2.5 11.5v80q0 16 -8.5 21.5t-18.5 8.5t-18.5 8t-8.5 20q0 13 8 23t21 15q18 -2 42.5 4t38.5 12q5 2 14.5 3t18.5 3q11 2 23 3q9 6 20 12q8 5 18 10l18 9t20 7t24 3
q16 0 24.5 -14.5t3.5 -31.5t-12 -40t-10 -40v-140q0 -15 1 -27t1 -31q0 -12 -3 -21t-5 -19v-132q0 -11 2 -16t4 -16v-106q-6 -7 -6 -26q0 -24 11 -43q-2 -13 2 -19.5t10 -10.5t13 -7t12 -7q0 -8 1 -14q1 -5 1 -10.5t2 -8.5z" />
    <glyph glyph-name="e" unicode="e" horiz-adv-x="608" 
d="M384 386q-12 6 -19.5 15t-15 17t-19 14t-30.5 6q-9 0 -11 -7.5t-7 -12.5q-6 -6 -15 -13.5t-16 -20.5q-6 -12 -8.5 -27.5t-2.5 -26.5q0 -3 10 -9.5t14 -6.5q8 0 17.5 8t16.5 10q14 5 22 4t13.5 -2.5t11 0t13.5 12.5q4 5 10.5 6.5t10.5 6.5q3 5 3 13t2 14zM568 352
q0 -9 -3.5 -21.5t-9 -24t-13 -20t-14.5 -8.5q-14 0 -25.5 4t-22.5 4q-22 0 -45.5 -6.5t-50.5 -11.5q-11 -2 -18 -8t-22 -6h-40q-10 0 -22 -11.5t-12 -18.5q0 -11 4 -20.5t10 -17.5q3 -19 15.5 -26.5t22.5 -15.5q14 -11 34 -14.5t46 -3.5q18 0 32.5 4.5t26.5 11t22 14
t21 14.5t18 8t16 8l20 -18q-4 -8 -2 -13.5t2 -12.5q0 -17 -9 -26t-19 -20q-14 -16 -20.5 -29t-13.5 -22.5t-17.5 -17t-32.5 -11.5q-5 -1 -13 -3.5t-16.5 -4.5t-16 -4.5l-10.5 -3.5q-19 -6 -44.5 -12t-49.5 -6q-39 0 -79 4.5t-63 21.5q-11 8 -22 21t-22 21q-5 4 -8 11.5
t-8 12.5q-11 11 -24 23t-18 27q-5 19 -9.5 44.5t-4.5 39.5q0 31 -0.5 58.5t6.5 49.5q8 27 19 46t25 40q7 10 17.5 25.5t22.5 30t25 26.5t25 16q12 5 28.5 6.5t27.5 5.5q20 7 39 16.5t45 9.5q24 0 39.5 -8t32.5 -12q13 -2 26.5 -1.5t23.5 -2.5q34 -12 57.5 -39t40.5 -57
q7 -11 18.5 -31t11.5 -35z" />
    <glyph glyph-name="f" unicode="f" horiz-adv-x="452" 
d="M533 646q-2 -2 -2.5 -4t-2.5 -4l-18 -26l-20 -14l-20 -7l-21 -1q-8 0 -16.5 0.5t-12.5 1.5l-10 5l-7 10l-17 11q-6 4 -9 10t-6 6l-10 2l-14 24l-22 4q-9 0 -13 -2t-5 -5t-0.5 -7.5t0.5 -10.5l-1 -14l1 -29l6 -28q2 -3 2.5 -11.5t0.5 -17.5v-17l-4 -11l10 -5l49 -1l13 -1
l21 3l22 -3q13 0 13 -9l12 -24v-40l-24 -10q-4 -4 -5 -9h-21l-16 3l-11 -3h-7h-12t-11 -1l-7 -1l-14 -1l-3 -15l-3 -25l-2 -16l-2 -10v-9l-2 -3l4 -81l3 -32l2 -19v-66q0 -4 1 -7.5t2 -7.5q5 -10 9 -14l3 -2l24 -31l24 -9q4 0 8 -2l10 -5l9 -11v-31q0 -15 -25 -15h-36l-9 2
h-18l-13 -2h-21l-16 1l-15 4l-73 1h-7q-3 0 -5.5 -0.5t-4.5 -0.5q-5 0 -9 -2t-6 -2l-14 -4h-14l-26 4h-16l-22 -4q-2 -1 -4 -1h-4h-4q-19 -1 -19 21q0 12 3 26.5t10 16.5l19 6l22 14l13 10q1 2 1 5.5t1 6.5q0 4 1 8l1 17l6 12v3.5t1 5.5q0 4 1 8l17 23l-15 16l-6 14l-1 120
v6.5t1 5.5l3 13v28q0 11 -1.5 14.5t-9.5 8.5h-2q-7 0 -11.5 1t-15.5 3q-10 -3 -13.5 -3.5t-11.5 -1.5l-7 -3q-17 2 -17 16l2 13l6 55l5 9l11 7l13 5h3q2 0 3.5 0.5t3.5 0.5q5 1 13 1l12 -3l16 4l8 14l-10 16l4 13l-6 15l21 31l6 27l12 22l7 13l15 14l9 7l7 13l17 27l33 16
l24 21l44 16l53 9l43 8q2 0 7.5 -1t10.5 -3q6 -2 13 -4l16 -3l25 -15l27 -4l12 -15l16 -14l6 -13l7 -24z" />
    <glyph glyph-name="g" unicode="g" horiz-adv-x="626" 
d="M408 -78q0 4 -4 7.5t-9.5 7t-10.5 6.5t-8 5q-21 14 -58 17t-74 3q-11 0 -18 -2.5t-14 -5.5l-9.5 9.5t-14.5 4.5q-16 0 -21.5 -7.5t-10.5 -16.5q4 -3 5.5 -4t2.5 -1.5t1.5 -2.5t2.5 -6l-8 -16q2 -11 7.5 -15.5t13 -6.5t16 -3t17.5 -5q7 -3 7.5 -6.5t8.5 -5.5t20.5 -1
t19.5 -1q4 -2 6.5 -4.5t4.5 -5t5 -4.5t10 -2q17 0 37 3.5t36.5 11t27.5 19t11 28.5zM370 384q0 4 -4 8.5t-9.5 8.5l-11 8t-7.5 7l-8 18q-3 2 -5.5 1t-6.5 -1q-11 0 -19.5 5t-16.5 5t-12 -9.5t-6 -16.5q-2 -8 -6 -14t-4 -10v-16q0 -12 -5 -22t-5 -24q0 -12 5 -26t13 -26
t18.5 -20t21.5 -8q9 0 14 4t8.5 9.5t6 11.5t7.5 11t8 6.5t5 3t4.5 4.5t6.5 10q0 9 3 18q1 4 3 10q-2 3 -3 7q-3 6 -3 13q0 8 4 13t4 11zM606 476q0 -8 -3 -13t-7.5 -8.5t-8.5 -7t-7 -9.5q-3 -7 -2 -14t-4 -12q-4 -4 -11 -9.5t-14 -11.5t-12 -13t-5 -14v-16q0 -7 6 -23.5
t6 -26.5q0 -2 -6.5 -7.5t-7.5 -6.5q-4 -8 -11.5 -22.5t-16 -29t-17.5 -25.5t-17 -11q-5 0 -8 0.5t-8 -0.5l-64 -32q-8 3 -13 4.5t-13 3.5l-64 -8q-17 2 -34 7t-30 5q-10 0 -17.5 -9.5t-12.5 -14.5q7 -7 5.5 -15.5t8.5 -12.5q8 -3 13.5 -3t11.5 1t13.5 2.5t19.5 1.5
q13 0 36.5 -1t37.5 -1q11 0 24.5 -4t27.5 -4t26.5 6t23.5 6q9 0 18 -7t16 -9t16.5 -4t19 -4.5t18 -5.5t12.5 -8q20 -22 31 -49t11 -69q0 -23 -7 -41.5t-18.5 -34.5t-25 -28.5t-25.5 -23.5q-5 -4 -12.5 -10.5t-15.5 -13t-16.5 -12t-15.5 -6.5q-10 -2 -20 0t-20 0
q-9 -2 -16.5 -6.5l-15 -9t-16 -8.5t-18.5 -4q-4 0 -8 3t-10 3q-9 0 -17 -4t-23 -4q-17 0 -26.5 4t-23.5 6q-30 4 -54.5 2t-51.5 6q-15 5 -24.5 15.5t-23.5 16.5q-3 2 -11 1t-13 1q-6 3 -7 4t0 2.5t2 3.5t-1 6q-3 6 -9.5 11.5t-12.5 12t-11 13.5t-5 15t8 12t10 12q8 25 22 44
t40 26q-4 6 -11.5 11.5t-15.5 10.5q-10 5 -21 11q-5 10 -9 20q-4 8 -6.5 17.5t-2.5 17.5t4.5 22t10.5 28t13 25.5t12 14.5q8 6 16.5 9.5t16 7.5t13.5 10t10 15q-18 3 -33 17t-25.5 34t-16 43.5t-5.5 45.5q0 18 1.5 29t4 19.5t5.5 16.5t7 19t19.5 19.5t22.5 18.5q6 9 20 21.5
t26 16.5q9 3 19 6t18 5q10 3 19 6h34q14 0 31 0.5t31 0.5q29 0 45.5 2t34.5 2q10 0 20 -5.5t20.5 -11.5t21.5 -11.5t22 -5.5l16 12q2 1 11 2t19 2.5t18.5 2.5t9.5 1q4 0 14 -4t19.5 -10t17 -12.5t7.5 -11.5z" />
    <glyph glyph-name="h" unicode="h" horiz-adv-x="724" 
d="M718 18q0 -10 -4.5 -15.5t-12 -8.5t-16 -3.5t-17.5 -0.5q-12 0 -20.5 2t-16.5 4l-16 4t-19 2q-12 0 -26.5 -4t-33.5 -4q-17 0 -37 6t-29 6h-32q-4 0 -13.5 -0.5t-19.5 0.5t-17.5 4.5t-7.5 11.5q0 12 10 17.5t16 12.5q17 19 26.5 45t9.5 61q0 17 -3.5 30.5t-6.5 27.5v58
q-2 10 -2 27.5t-2 28.5q-2 9 -9.5 20.5t-17.5 21.5t-21 17t-20 7q-16 0 -25 -4.5t-15 -12t-9 -18t-7 -23.5q-2 -8 -9 -12t-7 -12q0 -10 5 -15.5t5 -16.5q0 -18 0.5 -29.5t1.5 -21.5t1.5 -20.5t0.5 -28.5v-24v-16v-21t1 -21.5t3 -17.5q1 -2 4.5 -11.5t5.5 -12.5t8 -5l12 -4
t11 -5t5 -8q0 -7 -3 -13t-3 -15q0 -8 -6.5 -10t-15.5 -2q-16 0 -32 5t-36 5h-82q-14 -11 -33 -13.5t-45 -2.5q-11 0 -25.5 1t-27.5 5t-22 10.5t-9 17.5q0 13 5.5 22t13 16t16.5 12.5t15 13.5q5 6 9.5 20t8.5 30t6 31t2 23t-4 20t-4 20q0 17 4 32.5t4 33.5q0 14 -4 18.5
t-4 13.5q0 22 2.5 42t-2.5 46l4 70q1 15 0.5 24.5t-1.5 16.5t-2.5 14t-2.5 17q-2 9 -11 14t-19.5 10t-19 11.5t-8.5 18.5q0 14 8 20.5t16 11.5q22 14 44.5 21.5t51.5 20.5q27 12 52.5 28t39.5 36q10 14 21.5 21t36.5 7q11 0 16.5 -12t5.5 -26q0 -26 -6 -41.5t-6 -34.5v-38
q0 -5 -5 -11t-5 -13q0 -3 5 -6t11 -5.5t11 -6t5 -8.5q0 -14 -11.5 -26t-14.5 -16q-2 -2 -2.5 -10t-1.5 -16l-2 -22l-16 -14l5 -5q2 -2 3.5 -4.5t-0.5 -4.5l7 -3.5t9 -2.5q7 0 9 3.5t3 8t1.5 9t4.5 7.5t7.5 0.5t8.5 -0.5q10 3 17.5 9.5t15 13.5t16.5 12t23 5q2 0 6.5 1t9.5 3
l12 4q8 0 16 1q7 0 14.5 0.5t13.5 0.5q5 0 11.5 -4.5t12.5 -5.5q8 -2 13 0t13 0q10 -2 26.5 -9t32 -17.5t26.5 -23t11 -24.5q0 -14 10 -27.5t10 -32.5q0 -8 2 -14t4 -14l-6 -90q2 -5 5 -11t3 -13q0 -20 1 -34.5t1 -35.5q0 -9 1 -22t3 -26t5 -24.5t7 -17.5q2 -5 8.5 -9.5
t12.5 -9.5q7 -5 16 -10l6 -12q2 -5 4.5 -12t2.5 -15z" />
    <glyph glyph-name="i" unicode="i" 
d="M386 2q-14 0 -24.5 -1.5t-19.5 -3.5t-18 -3.5t-22 -1.5q-19 0 -32.5 3.5t-27.5 8.5h-132q-5 0 -6.5 -1l-1.5 -1l-1 1.5t-5 6.5q-3 -2 -9 -4t-13 -3.5l-14 -3t-10 -1.5l-20 30q-4 5 -4 16q0 9 4 14.5t10 9t13 5.5t13 5q14 7 26 22.5t12 35.5v120q0 7 -3.5 14t-0.5 18
q3 9 4.5 19.5t3.5 22.5q0 8 -2 18t-4 19l-6 20q-9 3 -18 7q-8 3 -15 5.5t-9 4.5q-6 5 -14 10t-8 16q0 7 4.5 15.5t8.5 12.5q9 2 13 9q2 4 3 7l18 2q7 1 13.5 2.5t10.5 3.5q14 8 33.5 17t36.5 11q14 2 32.5 9t29.5 12q11 6 15.5 5.5t7.5 -1t7 1t13 11.5q9 3 12.5 -1.5
t14.5 -4.5h13.5t7.5 -8v-48q0 -11 -2.5 -17.5t-5.5 -14.5v-56q-3 -8 -5.5 -15.5t-2.5 -18.5q0 -26 4 -49t4 -47v-72q0 -28 3 -57.5t19 -48.5q6 -6 13.5 -11.5t15 -11.5t12.5 -14t5 -19q0 -9 -1 -16.5t1 -15.5zM328 684q0 -17 -6 -30t-12 -28l-14 -10l-8 -8q-9 -9 -29 -13.5
t-47 -4.5q-11 0 -25.5 4t-24.5 8q-4 1 -4.5 5t-0.5 8.5t-0.5 8.5t-3.5 7q-7 6 -19 5.5t-17 7.5q-15 25 -15 62v10v16q0 9 8 19t20 15l10 4l30 18l10 4l14 4h14l20 4l8 2l4 -2l6 -2l10 -4l22 -14l20 -10l16 -20q7 -8 10.5 -28t3.5 -38z" />
    <glyph glyph-name="j" unicode="j" horiz-adv-x="394" 
d="M338 520q0 -9 -3 -22t-7.5 -26.5t-8.5 -26.5t-5 -23v-266q0 -23 4 -44.5t4 -37.5q0 -17 -6 -31.5t-10 -28.5q-8 -30 -11.5 -55.5t-16.5 -46.5q-6 -11 -14 -17.5t-17 -11t-19 -8.5t-20 -11q-9 -6 -16 -16t-14 -20.5t-14.5 -19.5t-17.5 -12q-11 -4 -30 -3.5t-32 -2.5
q-21 -5 -40 -9.5t-48 -4.5h-12.5t-11.5 2q-5 2 -8 5.5t-8 6.5t-15 7t-20 8.5t-17.5 10.5t-7.5 14v22t1 25q1 14 2 30q13 13 27 24q12 9 26 17t26 8q4 0 11.5 -4.5t16 -10.5t16.5 -12l12 -9q8 -6 8.5 -12.5t1.5 -12t5.5 -8.5t20.5 -3q14 0 19 7.5t5 20.5q0 11 5 26t5 28
q0 16 0.5 27.5t0.5 21.5t0.5 20.5t0.5 24.5q0 9 -0.5 27.5t-1.5 40t-1.5 42t-0.5 32.5q0 17 2 25t5 13.5t5 11t2 18.5q0 19 -7 31.5t-7 34.5q0 8 0.5 12t-0.5 12q-2 0 -3.5 4.5t-3 10.5t-3.5 11t-4 6q-6 4 -14 4h-16t-15 1.5t-11 6.5q-3 4 -2.5 12.5t0.5 15.5q0 17 7.5 24
t20.5 10h16q9 2 14.5 6t10.5 8t11 7t16 3h26q10 0 16.5 2t11 5t9 6.5t11.5 6.5q22 9 36.5 11t29.5 15q6 5 10 14.5t16 9.5q6 0 14 -3.5t15 -9t12 -12.5t5 -15zM324 660q0 -17 -13 -30.5t-31.5 -24t-40 -16t-37.5 -5.5q-10 0 -18 4t-15 9.5t-14 10.5t-15 8q-7 2 -11 2t-7 6
q-5 10 -7.5 22.5t-6.5 23.5q-3 8 -8.5 15.5t-5.5 16.5q0 6 4.5 13.5l7.5 12.5q6 11 11 23t12.5 22.5t17.5 17.5t25 7q10 0 15.5 1t10.5 2.5t11 3t17 1.5t27 -8t29 -8l38 -38q4 -9 2.5 -15.5t-5 -13t-6 -13.5t0.5 -18q2 -7 7 -14t5 -18z" />
    <glyph glyph-name="k" unicode="k" horiz-adv-x="742" 
d="M756 24q0 -13 -8 -16.5t-22 -3.5h-16q-19 0 -31 -3t-29 -3q-26 0 -48 3t-46 3q-15 0 -23.5 -7t-24.5 -7t-30.5 4t-23 12t-9 19t10.5 25q-1 3 -5 7t-9.5 9t-10 9.5t-7.5 8.5q-8 11 -10.5 24t-11.5 24q-5 5 -12.5 8.5t-11.5 9.5q-3 4 -8.5 13.5t-12.5 19t-15 16.5t-15 7
q-5 0 -9.5 -5t-8 -12.5t-6 -16.5t-2.5 -16q0 -12 5 -16.5t5 -15.5v-24q0 -16 10 -24t22 -14.5t22 -14.5t10 -23q0 -9 -4.5 -13.5t-12 -6.5t-16 -2h-17.5l-89 8h-52q-10 -5 -25 -7.5t-29 -2.5q-7 0 -13 3t-15 3q-14 0 -20 -6t-20 -6q-17 0 -31.5 6.5t-14.5 23.5l19 23l32 14
q2 8 5 16q2 7 4 14.5t2 14.5q0 5 4 10t4 10q0 24 2 42.5t2 43.5q0 13 -6 23t-6 17q0 25 8 54t8 52q0 17 -5 31.5t-5 32.5q0 12 4 23t8 19l-16 40q3 12 8.5 20t5.5 20q0 19 -13 29.5t-25 18.5q-8 5 -20 8.5t-12 17.5q0 18 7.5 27.5t19.5 14t26.5 7t28.5 7.5q16 5 30 9.5
t28 12.5t35 16.5t37 15.5q10 4 18.5 12.5l17 17t18.5 14.5t22 6q9 0 12.5 -9t4 -20.5t-1 -22t-1.5 -14.5q0 -13 -9 -24.5t-9 -31.5v-32q0 -10 -1.5 -23t-3 -26.5t-2.5 -25.5t-1 -21v-124q0 -13 5 -24.5t5 -29.5q0 -6 -5.5 -8.5t-8.5 -5.5q-3 -4 -4.5 -14t-1.5 -18
q0 -14 5.5 -16t16.5 -2q10 0 13.5 6.5t8.5 11.5q12 12 27 20.5t25 23.5q4 6 13.5 13.5t19.5 15.5t17.5 17t7.5 18q0 16 -9.5 23t-21.5 12t-21.5 11.5t-9.5 23.5q0 14 2 21t10 13h102q16 -2 38 -8t36 -6t24 4t26 4q8 0 15 -3t11 -3q5 0 6.5 1t2 2t2 2t5.5 1q7 0 16.5 -1
t18.5 -4t15 -8t6 -13q0 -11 -10.5 -20t-24 -15.5t-28 -11.5t-21.5 -9t-14.5 -9t-15.5 -5q-20 0 -28 -8.5t-16 -19.5q-3 -5 -14 -14t-16 -12q-2 -1 -8 -6.5t-13 -11.5t-12 -11.5t-5 -6.5q0 -6 4 -8l8 -4q9 -16 21 -31.5t25.5 -30.5t26 -30.5t21.5 -31.5q5 -10 15.5 -13
t16.5 -11q19 -26 39.5 -48t42.5 -44q4 -5 11.5 -9.5t15 -10.5t12.5 -13t5 -15z" />
    <glyph glyph-name="l" unicode="l" 
d="M382 8q0 -11 -12.5 -11.5t-23.5 -0.5q-12 0 -20.5 2t-15 4t-13.5 4t-17 2q-9 0 -16.5 -3l-15 -6t-16 -6t-18.5 -3q-16 0 -28.5 3t-29.5 3q-12 0 -20 -3t-20 -3q-10 0 -31.5 6t-44.5 1q-14 5 -18 12.5t-4 14.5q0 10 6 19t15 16.5t18 13.5t15 11q12 9 20 31.5t8 42.5v24
q0 13 3 22t3 20q0 10 -4 18t-4 22v76q0 10 3 18.5t3 23.5q0 18 -4 40.5t-4 45.5v56q0 14 -3.5 29.5t-10.5 20.5q-4 2 -10 2h-8q-11 4 -23.5 18.5t-12.5 27.5q0 7 7 11t11 7q18 14 33.5 19t40.5 13q15 4 25.5 14t20.5 21t20 21.5t24 15.5q13 5 21.5 10.5t17 10t19.5 7t28 2.5
q12 0 18 -12t9 -29t4 -34.5t3 -28.5l-16 -40v-112q-2 -13 -2 -28t-2 -28q-2 -17 -8 -31t-6 -31l12 -16q5 -12 5.5 -30.5t0.5 -35.5q0 -21 -6 -32t-6 -26q0 -9 7 -27t7 -33q0 -14 -3 -24.5t-3 -25.5q0 -26 11 -42.5t24.5 -30t25 -29t11.5 -40.5z" />
    <glyph glyph-name="m" unicode="m" horiz-adv-x="1016" 
d="M1012 14q-8 -6 -22.5 -7t-27.5 -1h-32q-25 0 -57 -5t-63 -5h-82q-6 3 -13 4.5t-13.5 4.5t-11 8.5t-4.5 16.5t8.5 17.5t13.5 12.5q12 17 22 35t10 45q0 5 -5 11t-5 13q0 29 5 61t5 63q0 9 -6 14t-10 10q-7 11 -10 24.5t-7.5 25.5t-13 20t-25.5 8q-8 0 -17 -4t-17 -10
t-13 -13.5t-5 -14.5q0 -20 5 -34.5t5 -37.5t-9 -37t-9 -27q0 -3 3 -3.5t5 -2.5q5 -8 5.5 -26t0.5 -30v-26q0 -26 8 -41t16 -35q4 -10 13 -14.5t9 -17.5q0 -5 -9 -8.5t-21 -5.5t-24 -3t-18 -1h-34q-26 0 -55 -6t-53 -6q-12 0 -22.5 8t-27.5 8h-24q-6 0 -11 1t-5 7
q0 11 7 12.5t11 7.5q11 17 22.5 43.5t11.5 52.5v40q0 12 3 20t3 20q0 8 -6 15t-6 17v42q0 12 -5 19t-7 21q-1 5 -1.5 12t-0.5 13v14q-4 6 -10 11q-5 5 -12.5 8.5t-15.5 3.5q-38 0 -54 -22.5t-16 -57.5q2 -2 4 -5q4 -6 4 -11q0 -9 -3.5 -18.5t-4.5 -21.5l8 -64
q-1 -13 -3.5 -20.5t-2.5 -19.5q0 -24 8.5 -39.5t19 -30t19.5 -29.5t9 -37q0 -6 -6 -8.5t-15 -3t-18 -0.5h-15q-30 0 -52 4.5t-48 9.5l-26 -6q-5 3 -10 4.5t-14 1.5q-20 0 -35 -4t-37 -4q-14 0 -28 2t-14 16q0 19 15 33t25 25q11 14 12.5 30t5.5 36v148q0 10 0.5 31.5
t-4.5 34.5q-3 9 -11 18t-16.5 18t-14.5 18.5t-6 19.5t9 18t21 13.5t24.5 9.5t19.5 7q10 4 21.5 6.5t20.5 7.5q5 3 11.5 8.5t13.5 11.5t14 10t13 4q11 0 17.5 -5t18.5 -5q11 0 18 8t18 12h22v-48q-5 -9 -9.5 -17.5t-4.5 -22.5q0 -4 2 -4.5t5 0.5t5.5 2.5t3.5 1.5
q6 0 10.5 4.5t8.5 10.5t7 12t6 9q7 6 13 9.5t12 5.5t14 3t19 4q12 3 22 7l20 8t21.5 6.5t26.5 2.5q29 0 49 -13.5t41 -24.5q8 -4 16 -7.5t8 -14.5l-0.5 -5t-1 -11t-0.5 -11t2 -5q13 0 14.5 6.5t7.5 13.5q11 14 27 27.5t39 16.5q13 1 21.5 5t17 7.5t17.5 6.5t22 3
q36 0 65 -7.5t55 -20.5q9 -5 13.5 -14t7.5 -20t5.5 -22t7.5 -20q3 -6 8.5 -10t11 -8.5t9 -10.5t3.5 -15v-66q0 -15 1.5 -28t-1.5 -28q-1 -5 -5.5 -9t-4.5 -7q0 -8 2 -20.5t5 -26t6 -26.5t5 -23v-56q4 -8 9 -9t11 -7t7 -12t5 -14q5 -8 13.5 -15t14.5 -15z" />
    <glyph glyph-name="n" unicode="n" horiz-adv-x="724" 
d="M710 18q0 -14 -9 -17t-23 -3q-19 0 -49.5 5t-54.5 5h-48q-17 0 -33.5 -5t-40.5 -5h-25t-23.5 2.5t-17 8t-6.5 17.5q0 13 8.5 21.5t18.5 16t18.5 16.5t8.5 24q0 13 2 29t2 25q0 5 -1 11.5t-2 14.5q-2 8 -3 18l-5 34q0 8 1 15q1 6 1.5 13t0.5 12q0 12 3 23t3 19
q0 9 -7.5 22.5t-18 26t-22 21t-20.5 8.5q-11 0 -24 -3t-23.5 -9t-17.5 -15t-7 -21q0 -15 4 -23.5t4 -24.5q0 -15 -2 -28t-5 -26t-5 -26.5t-2 -31.5q0 -12 2 -28t5 -32t7.5 -30t9.5 -22q4 -6 11 -11t13.5 -10.5t11 -13.5t4.5 -21q0 -20 -12 -20h-32h-138q-26 0 -47.5 1.5
t-44.5 4.5q-9 1 -19 2t-18 3.5t-13.5 7.5t-5.5 15q0 20 9.5 28.5t20.5 15t20.5 15.5t9.5 31q0 17 3 30t3 32q0 17 -3 29t-3 29q0 8 0.5 13t0.5 9t0.5 8t0.5 12q0 10 6 23t6 21q0 5 -8 10.5t-10 9.5q-4 9 -2.5 18t-5.5 14q-5 4 -12.5 7t-14.5 7t-12 10.5t-5 17.5
q0 15 12.5 25t30 16.5t36 11t29.5 9.5q32 13 58 24.5t50 29.5l14 6q4 -3 12.5 -6.5t16.5 -7.5t14.5 -9t6.5 -11q0 -11 -11 -23t-11 -25q0 -9 9 -13.5t17 -4.5q11 0 18 8.5t14 13.5q12 9 23 19t23 19t26.5 14.5t33.5 5.5q23 0 40.5 -7.5t35.5 -10.5q17 -3 31.5 -1t30.5 -5
q11 -5 17 -15.5t10.5 -23.5t8.5 -26.5t10 -22.5q5 -8 11.5 -17t6.5 -23v-56q0 -9 -2 -22.5t-4 -29t-4 -30.5t-2 -26q0 -13 3 -23q1 -6 3 -13q-1 -14 0 -26q0 -11 1 -21.5t3 -16.5q3 -15 12.5 -25.5t20 -20t19 -20.5t8.5 -26z" />
    <glyph glyph-name="o" unicode="o" horiz-adv-x="672" 
d="M426 234q0 15 -5 24.5t-5 23.5q0 9 5 10.5t5 11.5q-5 4 -9 8q-3 3 -6 5.5t-3 4.5q-2 7 -4.5 20.5t-6.5 27t-8.5 25.5t-10.5 17q-8 7 -14.5 4.5t-17.5 1.5q-6 2 -12 9t-14 7q-11 0 -17 -5t-10.5 -12.5t-7.5 -17t-7 -17.5q-5 -12 -14.5 -24t-9.5 -28q0 -12 5 -18.5t5 -17.5
q0 -1 -1 -3.5t-2 -5.5q-2 -4 -3 -7q0 -6 5 -8t7 -6t1 -10.5t-3 -13.5t-4 -13t-2 -9l10 -56q2 -8 7.5 -19.5t8.5 -16.5t11 -6t13 -4q3 -2 8 -7.5l10 -11t10 -9.5t10 -4q9 0 16.5 4.5t13.5 10.5t12 15l2 18q1 8 2.5 15t3.5 11q4 7 7 10t6 5.5t5 7t4 15.5q2 7 3 19.5t1 18.5z
M638 236q-3 -17 -5.5 -28.5t-5 -21t-5.5 -18.5t-7 -22q-2 -7 -7.5 -17t-11.5 -19.5t-13 -18t-12 -13.5q-8 -7 -13 -10.5t-10.5 -5.5t-12 -4.5t-16.5 -7.5q-8 -4 -12.5 -16.5t-12.5 -15.5q-15 -7 -38 -15t-37 -11q-11 -3 -21 -4.5t-21 -2t-25 -1t-33 -0.5q-26 0 -48.5 7.5
t-36.5 12.5q-33 11 -61.5 17t-50.5 27q-10 10 -17 21.5t-16 20.5q-7 6 -10.5 12t-8.5 14q-4 6 -6 16.5t-2.5 21.5t-1.5 21.5t-3 18.5q-4 13 -12.5 27t-8.5 29q0 18 6.5 34t6.5 40q0 11 5 23.5t5 18.5q0 13 6 22t17 18q3 9 7 16q3 6 6.5 12t7.5 8q7 5 19 9t14 7
q11 14 28.5 28.5t34.5 21.5q12 5 22.5 8t27.5 6q14 3 27 8.5t33 5.5q23 0 43 -7t34 -11q13 -3 26 -3.5t25 -0.5t22.5 -2t19.5 -8q11 -8 22 -10t20 -10q8 -6 14.5 -11.5t14.5 -10.5q10 -5 17.5 -15t15.5 -17q14 -11 27 -31.5t13 -46.5q0 -8 1 -18t1 -18q0 -11 6.5 -23
t6.5 -25v-32z" />
    <glyph glyph-name="p" unicode="p" horiz-adv-x="704" 
d="M444 230q0 20 -2.5 32.5t-7.5 21.5q5 14 3.5 23t-5.5 12t-9 0.5t-6 -9.5q-6 18 -7 28.5t-3 17t-9 10.5t-26 10q-7 2 -14.5 8t-17.5 6q-23 0 -27.5 -11t-4.5 -21q0 -6 -8 -13t-8 -15q0 -20 4 -39t0 -43v-54q3 -16 3.5 -34.5t4 -34.5t12 -26.5t26.5 -10.5q28 0 47.5 10.5
t31.5 29.5t17.5 45t5.5 57zM660 206q-8 -15 -13.5 -31.5t-11.5 -33t-14 -31.5t-19 -26t-19.5 -22t-22.5 -22q-12 6 -17.5 5.5t-8 -4.5t-4 -9.5t-4.5 -9.5q-7 -8 -22 -14t-33 -10.5t-36 -7t-31 -2.5q-31 0 -49 4.5t-24 19.5q-7 1 -12 3t-9 4t-6 5q-2 -4 -7 -16.5t-5 -17.5
q0 -19 6 -39t6 -37v-24q0 -13 6.5 -21.5t16.5 -15t21 -11.5t20 -12q6 -5 14 -9t8 -17q0 -8 -11 -11t-19 -5h-152q-32 0 -59.5 -4t-62.5 -4q-13 0 -25 0.5t-21 3.5t-14.5 9.5t-5.5 18.5q0 8 7.5 17t16.5 17q11 9 25 17q2 6 5 11q2 5 4 9.5t4 6.5q4 5 6 15.5t2.5 22.5t0 24
t-0.5 20l3 29l-5 51l-4 66l10 60l-9 49l5 25q-2 8 -9 19.5t-7 16.5q0 11 5 21t5 27q0 21 -3.5 39.5t-14.5 26.5q-7 5 -15.5 7.5t-16 5.5t-13 9t-5.5 18q0 2 3.5 5.5t8 7.5t9.5 7t7 4q12 4 23 11t21 11q19 7 30 8t28 8q23 9 40 16.5t37 17.5q18 13 31.5 13.5t33.5 0.5
q7 0 9 -3t5 -7v-64l6 -4t10 -2l20 22q5 5 11.5 6.5t14.5 3.5q9 3 16.5 6.5t15.5 7t18 6t24 2.5q34 0 58.5 -7t44 -19t34.5 -28.5t29 -35.5q11 -14 21 -28t18 -29.5t12.5 -35t4.5 -45.5v-92z" />
    <glyph glyph-name="q" unicode="q" horiz-adv-x="704" 
d="M410 308q-5 22 -2.5 36t2.5 34q0 16 -7.5 30t-24.5 14h-28t-26 -2q-12 -3 -22 -16.5t-17 -32.5t-11 -39.5t-4 -37.5q0 -22 -1.5 -38t3.5 -30l10 -46q5 -7 10 -16.5t12 -15.5t16 -7t16 -9q7 -7 11.5 -12.5t18.5 -5.5t21 8t10.5 20t5 25.5t5.5 24.5v84q0 4 -2 9t-4 7z
M710 438q0 -5 -6 -7.5t-13.5 -4l-15 -3t-9.5 -5.5q-8 -12 -23.5 -24.5t-26.5 -21.5q5 -18 10.5 -31t5.5 -33q0 -18 -4 -36t-4 -38v-50q0 -20 -5 -34t-5 -36q0 -23 4 -39.5t4 -36.5v-100q0 -12 -9 -22t-9 -18q0 -11 11 -16t15 -12q4 -6 3 -12.5t3 -11.5q3 -4 10 -11t14 -15
t12.5 -16.5t5.5 -15.5q0 -6 -6 -8t-14.5 -2.5t-17 0t-14.5 0.5q-21 0 -41 6t-31 6q-8 0 -12 -5t-12 -7q-13 -2 -27.5 -2h-28.5h-116q-18 0 -34.5 4t-29.5 14q5 8 14.5 21.5t17.5 20.5q7 6 18 10.5t22.5 9.5t21 10.5t12.5 13.5q5 10 3 14.5t-1 13.5l-6 16q4 11 5 26t1 32
q0 14 -5 23.5t-5 16.5q0 6 -2 4l-8 -8t-17 -13.5t-29 -12.5l-32 8q-14 -5 -22.5 -10.5t-25.5 -5.5q-18 0 -37.5 5.5t-38 13.5t-34.5 17.5t-26 17.5q-7 5 -16.5 13.5t-13.5 18.5q-3 8 -1 13t-3 11q-5 8 -12 13.5t-12 14.5l10 -6q-8 14 -11 29.5t-11 30.5q-2 5 -9 7.5t-7 12.5
q0 11 4 19t4 23q0 9 -1.5 15.5t-3.5 11.5t-3.5 11t-1.5 14q0 19 5.5 39t14 38t19 33.5t19.5 25.5q11 11 17 16t17 16q5 5 13 10.5t16 11.5t15 12.5t10 13.5q7 5 20.5 8.5t28.5 6t29.5 4t23.5 1.5h84q12 0 21.5 -4t18 -8.5t17 -8t19.5 -3.5q8 0 9 6t1 14q0 5 -4 6t-9 1.5
t-9 3t-4 11.5q0 15 4.5 20.5t12.5 6.5t18.5 0t22.5 1q8 2 16.5 6t17.5 4q4 0 13.5 -3t20 -6.5t19.5 -7.5t11 -5q18 -13 38.5 -26.5t39.5 -25.5q7 -5 13.5 -8t10.5 -10q5 -7 6 -17t6 -15t10.5 -7t5.5 -13z" />
    <glyph glyph-name="r" unicode="r" horiz-adv-x="564" 
d="M548 412q0 -41 -9 -64.5t-32 -34.5q-12 2 -19.5 0.5t-14.5 -4t-14.5 -5t-18.5 -2.5q-29 0 -46 14.5t-28 31.5q-3 4 -4 10.5t-2.5 12.5t-6 10.5t-13.5 4.5q-8 0 -15 -5.5t-11.5 -13.5t-7 -17.5t-2.5 -17.5q0 -11 4 -21t4 -19q0 -5 -4 -13t-4 -11v-110q1 -4 2.5 -10.5
t3.5 -14.5l4 -18q6 -7 12 -12l10 -10t10 -7q4 -2 14 -7.5t20 -11.5t18 -13t8 -12v-24q0 -8 -9 -12t-17 -4q-13 0 -22.5 1t-27.5 1h-92q-21 3 -42 1t-41.5 -5.5t-39.5 -7.5t-35 -4q-8 0 -19 1t-21 4t-17 8t-7 13q0 11 0.5 16t5.5 10t12.5 14t13.5 14q11 8 21 11t17 17
q2 3 2.5 9t1.5 12l2 16q1 16 2 31q1 13 1.5 25t0.5 19q0 18 -6 26.5t-6 23.5q0 10 5 18.5t5 21.5q0 12 -1.5 25t-4.5 26t-7.5 24t-10.5 17t-13.5 9.5t-14 8t-11.5 11t-5 17.5q0 8 7 13.5t11 8.5q10 9 22.5 13t26.5 7t29 5t30 7q21 7 34.5 16t35.5 20l23 11.5t29 6.5
q12 0 16 -9t5.5 -20t4 -20t12.5 -9q9 0 16.5 5t14 11.5t11.5 13.5t10 12q10 10 30.5 13t37.5 3q18 0 27 -7t21 -13q3 -2 9.5 -4.5t14 -6t14.5 -7t10 -6.5q15 -16 17.5 -37.5t2.5 -50.5z" />
    <glyph glyph-name="s" unicode="s" horiz-adv-x="616" 
d="M573 172q0 -32 -6.5 -54.5t-17.5 -37.5q-2 -3 -6.5 -5.5t-8.5 -4.5q-5 -2 -10 -3q-7 -13 -16 -24q-8 -9 -19 -16.5t-24 -8.5q-9 -5 -22 -12.5t-28 -7.5h-24q-19 0 -34.5 -9t-36.5 -9h-82q-5 0 -15.5 7t-15.5 7q-18 0 -30.5 7t-20.5 7q-10 0 -18.5 -4.5t-17 -9.5t-17 -9.5
t-18.5 -4.5q-18 0 -27.5 15.5t-9.5 32.5q0 4 -1.5 12t-2.5 16.5t-0.5 15t4.5 8.5q-3 12 -4 21.5t-1 19t0.5 20.5t0.5 25q0 22 8.5 27t26.5 5q5 0 9 -4t7 -6q9 -5 15.5 -9t12.5 -10q9 -8 14.5 -17t14.5 -18q7 -7 12.5 -10t12.5 -8t11 -9t8 -6.5t9 -4t15 -2.5
q11 -9 23.5 -14.5t34.5 -5.5q27 0 50 11.5t23 36.5q0 10 -6 16t-14.5 10t-18 6.5t-16.5 5.5q-6 2 -14 2.5t-16 -0.5q-9 -1 -17 -4l-24 10q-11 5 -23 9t-22 7q-20 13 -31.5 19t-19.5 11t-15.5 13.5t-18.5 26.5q-16 16 -27.5 37.5t-11.5 50.5q0 17 7 36.5t18 39.5t25 39.5
t24 26.5q13 8 29 13t30 13q9 4 15.5 8t13.5 7t15.5 5t22.5 2q11 0 16.5 -2.5t14.5 2.5q11 2 20.5 6t20.5 4q5 0 18.5 -4t22.5 -4t16 -4t13.5 -8.5t14 -8t19.5 -3.5q17 0 29 6t32 6q8 0 15 -3.5t13 -8.5q7 -5 14 -11l7 -35q3 -15 5.5 -33.5t2.5 -36.5q0 -7 -3 -13.5t-6 -12.5
q-4 -7 -8 -13q-6 -1 -11 -2t-10 -1h-9q-14 0 -23.5 5.5t-16.5 13.5t-13 17t-14 16q-14 13 -30.5 24.5t-41.5 11.5h-32q-5 0 -11 -1t-11 -3q-6 -2 -13 -4q-4 -6 -7 -12q-7 -12 -7 -20q0 -20 21 -33t42 -15q8 -1 9.5 -4.5t4 -7.5t9.5 -6.5t26 -1.5q13 -2 22 -4t16 -4t13.5 -5
t15.5 -7q3 -2 4.5 -4t2.5 -4q1 -3 2 -4l43 -12q5 -5 10 -9q4 -4 8.5 -8t8.5 -8q8 -20 20 -39.5t12 -51.5z" />
    <glyph glyph-name="t" unicode="t" horiz-adv-x="474" 
d="M456 454q0 -18 -4.5 -27t-13 -13t-21 -4h-27.5h-16q-31 0 -47.5 -19.5t-16.5 -48.5v-72q0 -12 3 -24.5t3 -31.5v-24q0 -23 10 -39.5t26.5 -27t38 -16t43.5 -5.5q13 0 13.5 -6.5t0.5 -19.5q0 -9 -3 -12.5t-7.5 -4.5t-10.5 -1.5t-11 -3.5q-8 -5 -13.5 -15.5t-10.5 -18.5
q-7 -10 -16.5 -11t-23.5 -5q-26 -8 -50 -16t-60 -8q-16 0 -24.5 6t-15 13t-13 13t-17.5 6h-24q-10 0 -14 8t-10 16t-12.5 22t-11.5 30.5t-8.5 33t-3.5 30.5q0 11 4 21.5t4 26.5t-3 26t-3 24q0 29 7 56.5t7 59.5q0 29 -10 35.5t-34 6.5q-3 0 -15 -3t-17 -3q-3 0 -8 8.5
t-10 20t-8.5 22t-3.5 13.5q0 7 5.5 14.5t14 13.5t18 10t18.5 4q20 0 30.5 -1t25.5 1q0 12 -0.5 25.5t-0.5 26.5t2 24.5t7 19.5q3 5 7.5 5.5t8.5 4.5q5 6 7.5 12.5t6 12.5t8.5 10.5t14 6.5q21 4 38 3.5t34 4.5q20 7 34.5 17.5t37.5 10.5q5 0 13.5 -7t8.5 -13q0 -10 -3 -17.5
t-3 -18.5q0 -26 -9 -51t-9 -55q0 -5 7.5 -11t10.5 -11h50q17 -4 35 -5t41 -1v-54z" />
    <glyph glyph-name="u" unicode="u" horiz-adv-x="742" 
d="M743 80q0 -4 -11.5 -5.5t-14.5 -4.5q-6 -6 -9.5 -17t-12.5 -15q-11 -5 -27 -8.5t-29 -7.5q-12 -3 -17.5 -3t-11 1t-13.5 -0.5t-24 -7.5l-42 -16q-11 -2 -16 -11t-8 -9q-9 0 -14.5 -3t-10.5 -7t-10.5 -7t-14.5 -3q-15 0 -20.5 12t-5.5 26t7 22t7 20q0 11 -2 13.5t2 10.5
q-17 0 -27.5 -6.5t-18.5 -15.5t-16 -18.5t-18 -15.5q-8 -5 -25.5 -9.5t-26.5 -6.5q-20 -4 -43 -5t-45 -1q-16 0 -30 6.5t-26.5 16t-22.5 20t-19 19.5q-7 7 -13.5 11.5t-12 10t-9.5 13t-7 19.5v16q0 23 -3 42.5t-3 41.5q0 23 3 49.5t3 52.5v28q0 11 8 17t8 19q0 3 -3 4t-5 4
q-10 17 -14 30.5t-18 27.5q-5 5 -12.5 10.5t-14.5 12.5t-12 14.5t-5 16.5t6 16t15 11.5t20 6.5t21 2q13 0 22.5 -2t18 -5t17.5 -5.5t22 -3.5l120 12q21 -2 26.5 -11t5.5 -29q0 -17 -5 -30.5t-9 -29.5l6 -24q-3 -20 -1.5 -35.5t1.5 -30.5q0 -23 -4 -40t-4 -40q0 -9 3 -25.5
t7 -32.5q4 -19 11 -40q10 -8 20 -14q8 -5 18 -9.5t19 -4.5q27 0 45.5 17t18.5 43v40q0 10 -3 20t-3 20v90q0 17 9 29.5t9 26.5q0 4 -4 8t-9.5 7l-11 6t-7.5 5q-6 6 -14.5 12t-16.5 12.5t-13.5 14t-5.5 15.5q0 13 4.5 18t12 6.5t16 2t17.5 5.5q14 -3 25.5 -4.5t23.5 -2.5
t25 -1h30h88q26 0 39 -8t13 -40q0 -31 -9 -59.5t-9 -54.5q0 -17 5 -31t5 -33v-56l-6 -48q4 -13 7 -23t7 -18t11.5 -14.5t20.5 -10.5l24 6q12 -5 19 -14t7 -26z" />
    <glyph glyph-name="v" unicode="v" horiz-adv-x="670" 
d="M678 462q0 -15 -5.5 -20.5t-13.5 -7t-18.5 -2.5t-20.5 -6q-2 -1 -3.5 -5.5t-3 -10t-2.5 -10.5t-1 -6q-6 -12 -15 -19t-19 -17q-12 -12 -16.5 -30t-13.5 -32q-8 -14 -12 -28.5t-12 -29.5q-6 -11 -18 -21.5t-20 -22.5q-4 -6 -7.5 -15.5t-7.5 -19t-8.5 -18t-10.5 -11.5
q-5 -3 -9.5 -3.5t-7.5 -1.5t-5 -4t-2 -11v-26q0 -11 -7 -18.5t-15 -14.5t-15 -15.5t-7 -21.5q0 -8 -6.5 -15t-19.5 -7q-5 0 -7 -2t-4.5 -5t-7.5 -5t-15 -2q-11 0 -20.5 8.5t-15.5 15.5q-13 15 -25 30t-23 34q-5 11 -9.5 25.5t-10.5 24.5q-7 11 -17 23.5t-15 24.5
q-9 20 -15.5 36t-20.5 30q-20 20 -29 49.5t-21 56.5q-3 8 -10.5 13t-7.5 19v18q0 7 -5 8t-9 4q-6 6 -8 12.5t-10 11.5q-5 3 -13 6t-11 8q-3 7 -2.5 8.5t2 1.5t1.5 1t-5 7q-8 9 -17 18t-9 28q0 3 6.5 5t14.5 3.5t15.5 2.5t9.5 3h232q11 0 23 -1t22 -4t16.5 -9t6.5 -16
q0 -13 -5.5 -21.5t-12.5 -15t-12.5 -13.5t-5.5 -18q0 -8 5 -13t7 -11q8 -22 14 -37t14 -37q2 -7 7.5 -21.5t12.5 -29.5t16 -26t18 -11l20 20v24q0 13 6 27.5t13 30.5t13 34t6 38q0 18 -7 23.5t-15 14.5q-11 13 -20.5 30t-17.5 32q6 5 13 6.5t19 1.5h32q17 0 27.5 5t28.5 5
h88q11 -6 24 -9.5t23.5 -9t17.5 -15t7 -26.5z" />
    <glyph glyph-name="w" unicode="w" horiz-adv-x="908" 
d="M912 462q0 -10 -7.5 -18.5t-17.5 -16t-20.5 -14.5t-16.5 -13q-8 -8 -12 -18.5t-8 -22t-8 -22.5t-10 -19q-7 -9 -15.5 -17.5t-12.5 -20.5q-7 -22 -12 -39.5t-16 -34.5t-24 -26t-24 -24q3 -2 6.5 -2.5t3.5 -7.5q-3 -4 -5 -8q-2 -2 -2.5 -3.5t-1.5 -2.5l-1 -2q-3 -6 -6 -14
t-7 -16t-8.5 -15t-8.5 -11q-6 -5 -14 -9.5t-8 -14.5q0 -32 -18 -52t-50 -20q-4 0 -9 9t-9 11q-17 11 -28.5 28.5t-19.5 37.5q-5 12 -7 22t-11 18q-6 6 -12.5 16.5t-12 23.5t-10 25t-7.5 21q-2 6 -3 14t-2.5 15t-4.5 12t-10 5q-8 0 -9 -7t-3 -15q-3 -18 -7 -29t-15 -19
q-9 -7 -12.5 -13.5t-4.5 -13t-2.5 -15t-6.5 -20.5q-3 -6 -4 -7t-2 -1t-2.5 -0.5t-5.5 -5.5q-5 -6 -7 -16t-5 -18q-6 -17 -16.5 -30.5t-21.5 -27.5q-3 -4 -3.5 -8t-1.5 -7t-4 -5t-11 -2q-12 0 -25 1.5t-24 6t-18 12t-7 18.5v18q0 8 -6.5 16.5t-9.5 15.5q-5 13 -13.5 27.5
t-16 29.5t-13 30.5t-5.5 32.5q0 7 -1.5 10t-3.5 3.5t-5.5 0.5t-7.5 2q-12 7 -18.5 23.5t-13.5 28.5q-5 9 -10 22t-10 26.5t-10.5 25.5t-11.5 20q-5 7 -3.5 17.5t-2.5 18.5q-4 9 -10.5 22t-11.5 22q-4 8 -11 14.5t-14.5 13t-13 15t-5.5 21.5q0 8 7.5 14.5t10.5 9.5l64 2
q9 -2 21 -1t23 -1q10 -2 16.5 -8t15.5 -6q21 0 40.5 8t41.5 8q9 0 19 -1t18.5 -4t14.5 -9t6 -16t-2 -14t-5.5 -5.5t-8 -3t-8.5 -5.5l-14 -40l16 -12q13 -20 19.5 -44t14.5 -46q3 -9 2.5 -18.5t1.5 -21.5q2 -10 6 -13t6 -11q3 -12 5.5 -23t14.5 -11q5 0 10.5 5t5.5 13
q0 10 -3 13t-3 11q0 12 7 22t16 21t16 23.5t7 27.5q0 9 -4.5 21t-11 24t-14.5 21.5t-14 13.5q-5 4 -11 5t-11.5 2.5t-10 5t-7.5 11.5l16 50l-6 8q17 3 36 1.5t36 -1.5q12 0 20.5 -2t21.5 -4l72 6q20 2 38.5 -1.5t33.5 -6.5q7 -2 16 0.5t16 -0.5q9 -4 12.5 -19.5t3.5 -28.5
q0 -10 -7.5 -16t-16.5 -12t-16.5 -14.5t-7.5 -23.5q0 -6 1.5 -8.5t4 -3.5t6 -2t6.5 -4q5 -4 5 -11.5t3 -12.5q5 -9 11.5 -15t10.5 -17q7 -21 11 -42.5t13 -39.5q11 3 14.5 6.5t3.5 15.5v16q0 7 2 10.5t5 5t6.5 3t6.5 5.5q5 7 4.5 16.5t1.5 15.5q4 16 9 30t5 36q0 15 -5.5 23
t-13 13.5t-15 10t-12.5 13.5t-6.5 24t-1.5 24q0 11 11.5 13.5t22.5 2.5q7 0 17.5 -2t21.5 -4l22 -4t19 -2q14 0 26.5 4t29.5 4q18 0 33 -2t26.5 -8t18 -17t6.5 -29z" />
    <glyph glyph-name="x" unicode="x" horiz-adv-x="752" 
d="M728 0q-24 -4 -44.5 -2t-45.5 2q-18 0 -33.5 -1.5t-30 -3t-30.5 -2.5t-36 -1q-23 0 -37 4t-35 4h-34h-13.5t-14 1.5t-11.5 5.5t-5 11q0 10 5.5 19.5t12.5 19t12.5 21t5.5 26.5q0 3 -5.5 8t-13 10t-14.5 10.5t-9 9.5q-5 10 -10.5 24t-17.5 28q-3 -6 -5 -14.5t-7 -13.5
q-6 -6 -16 -8.5t-16 -7.5q-3 -2 -6 -12.5t-5.5 -22.5t-4.5 -22.5t-2 -14.5q0 -11 7 -18t16 -13.5t16 -15t7 -21.5q0 -10 -13.5 -11t-22.5 -1h-88q-24 -2 -50 2t-52 4q-6 0 -14 -4t-18 -4q-12 0 -27 3.5t-15 20.5t5.5 25.5t13 13t16.5 8t17 11.5q5 5 17 12t17 10q12 7 17 13
t9 11t8 11t14 13q12 9 27 20.5t25 27.5q4 7 11.5 12.5t14 12t11.5 14t5 19.5q0 6 -7 13.5t-16.5 14.5t-18.5 13t-12 9q-7 6 -11 19.5t-13 18.5q-14 6 -30 10t-22 18q-3 8 -3.5 18t-6.5 16q-9 9 -22 17t-25.5 18t-21.5 22t-9 29q0 6 5 11t12.5 8t16 5t14.5 2t16 -2.5t16 -3.5
h118q31 0 54.5 4t51.5 4q9 0 19.5 -2.5t20 -7t16 -12t6.5 -16.5q0 -14 -14 -28t-20 -28q23 -12 38.5 -32.5t27.5 -43.5q26 9 42 31.5t16 52.5l-16 14q-10 9 -22 20t-12 30q0 5 9.5 9t22 7t25.5 4.5t19 1.5l106 -8q11 3 18.5 1.5t15.5 -1.5q10 0 23.5 0.5t25.5 -2t20.5 -10.5
t8.5 -26q0 -12 -4.5 -12t-11.5 -6q-11 -9 -25.5 -15.5t-30 -12.5t-30 -13.5t-24.5 -18.5q-6 -7 -16 -23t-18 -23q-6 -5 -12 -5.5t-14 -4.5q-6 -3 -12.5 -9t-12.5 -13.5t-11.5 -15t-9.5 -12.5q15 -11 29.5 -27.5t26.5 -30.5t29.5 -24t28.5 -24q4 -6 11 -20q4 -7 7 -16
q9 -8 16 -15q6 -6 11 -11.5t7 -7.5q4 -8 12 -13t17.5 -9.5t18.5 -9t14 -10.5q12 -14 16 -20t4 -11t-2.5 -13t-3.5 -26z" />
    <glyph glyph-name="y" unicode="y" horiz-adv-x="664" 
d="M674 480q0 -11 -11.5 -20.5t-26 -18.5t-28.5 -17t-20 -14q-9 -11 -10 -22.5t-6 -25.5q-4 -11 -12.5 -19.5t-13.5 -18.5q-5 -9 -12 -14.5t-12 -15.5q-10 -23 -16 -44.5t-12 -42t-14.5 -39.5t-23.5 -36q-11 -12 -18.5 -28t-13.5 -33t-12.5 -34.5t-13.5 -32.5
q-9 -17 -24 -29t-22 -31q-4 -11 -6 -15.5t-5 -7t-7.5 -4.5t-11.5 -9q-6 -5 -4 -12.5t0 -15.5q-2 -6 -6 -7.5t-8 -6.5q-9 -11 -17.5 -24.5t-18 -25.5t-22 -20t-30.5 -8q-9 0 -16 -3t-13 -7t-12 -7t-13 -3h-37.5t-36.5 6q-6 3 -14.5 10.5t-17.5 16.5t-16 18t-10 15
q-5 10 -3.5 28.5t1.5 27.5l12 16q6 10 16 24.5t20 19.5q4 2 13.5 3.5t20 2.5t20 1.5t12.5 0.5q7 0 9.5 -8t4.5 -12q5 -8 19 -16t27 -8t18.5 11.5t11.5 20.5q6 10 14 13.5t14 14.5q5 8 6.5 19t3.5 21q-7 1 -14 14q-4 5 -7 13q-11 18 -21 36q-8 14 -15 29.5t-9 25.5
q-2 12 -4.5 16.5t-5.5 7t-6.5 5t-9.5 11.5q-5 7 -9 23q-2 7 -3 16q-7 9 -12 18q-5 8 -9.5 15t-6.5 12q-3 5 -5 14q-1 4 -2 9q-5 6 -9 12q-4 5 -7 11t-5 12q-7 23 -15 43t-23 33q-9 8 -12 16t-10 16t-15 13t-15.5 11.5t-12.5 16t-5 27.5q0 7 6 12t15 8t18.5 4.5t16.5 1.5
q25 0 40 -2t36 -2h76l68 16q7 -2 13 -5q5 -2 11.5 -4.5t11.5 -3.5q14 -4 26 -9t12 -12q0 -17 -5.5 -26t-12.5 -16.5t-12.5 -16.5t-5.5 -25q0 -27 13 -50.5t25 -39.5q6 -7 7 -15t0.5 -16t0 -17t4.5 -18q2 -5 6 -8t4 -16v-16q14 0 18.5 7.5t5.5 16.5q1 11 -3 24q3 8 6 15
q2 6 4.5 12.5t4.5 10.5q4 9 9.5 14t10.5 10t8.5 12t3.5 20v16q0 10 8 13.5t8 12.5q0 16 -10 25.5t-22 18.5t-22 19.5t-10 28.5q0 7 9.5 12.5t23 9t27 5t22.5 1.5h84q11 0 21.5 3t26.5 3q7 0 17.5 -4t21 -10t18 -14t7.5 -16z" />
    <glyph glyph-name="z" unicode="z" horiz-adv-x="648" 
d="M608 194q0 -10 -5.5 -16.5t-5.5 -15.5q0 -5 3.5 -10.5t3.5 -13.5q0 -15 -4.5 -27t-9.5 -23q-8 -14 -8 -28.5t-2 -31.5l-13 -18q-9 -3 -24 -2.5t-28 -1.5q-16 -2 -34 -7t-35 -5q-18 0 -32 1t-28 5h-83q-27 0 -53 4t-57 4q-32 0 -67 -8t-64 -8t-29 30q0 17 11.5 27t17.5 21
t10 24t15 20q12 7 22.5 9t21.5 9q10 6 20.5 22.5t15.5 27.5q11 23 27.5 37t33.5 31q5 6 9 16t10 16q5 5 13.5 11t16.5 13t14 15.5t6 18.5q0 3 -4 4.5t-9.5 2t-11.5 0t-10 -0.5q-15 0 -22 -3t-21 -3h-43q-17 0 -29.5 -4t-24.5 -10l-24 -12t-28 -10l-15 28q-1 14 -5 20t-4 18
q0 5 1.5 14.5t4 20.5t5 21t5.5 16l10 50q4 7 15 12t24.5 8t27 4.5t22.5 1.5q10 0 17.5 -1.5t14.5 -3.5t14.5 -3.5t18.5 -1.5h119q12 5 29 8t35.5 4.5t36.5 1.5h32q13 0 32.5 -1.5t36.5 -6t29.5 -12.5t12.5 -20q0 -8 -4 -11.5t-10 -5.5t-12.5 -3.5t-10.5 -5.5t-5 -9.5
t-2 -10.5t-2.5 -10t-7.5 -8q-25 -14 -35 -31.5t-26 -40.5q-10 -14 -20 -21t-21 -19q-12 -12 -20.5 -27.5t-18 -29.5t-23 -25t-35.5 -14v-16q0 -10 -4 -13.5t-7 -10.5q3 -2 6.5 -4t10.5 -2q9 0 13.5 2.5t8 5.5t7.5 5.5t12 2.5q5 0 15.5 -3t19.5 -3q24 0 52 1.5t41 12.5
q6 4 14.5 11.5t18 15t20 12.5t20.5 5q4 0 8.5 -4.5t8 -11t5.5 -13t2 -9.5z" />
    <glyph glyph-name="braceleft" unicode="{" horiz-adv-x="520" 
d="M434 -226q-44 5 -91 3.5t-90 7.5q-21 5 -35.5 13t-24.5 17q-8 8 -18 17t-19 19t-15 21t-6 23q0 26 -1.5 61t-1.5 62t-4.5 47t-4.5 48v26q0 15 1.5 23t0.5 12t-7.5 6.5t-22.5 6.5q-7 2 -10.5 5.5t-6.5 7t-8.5 6t-17.5 2.5q-15 0 -22.5 -1t-19.5 1q0 13 -2 30t7 24
q10 7 22 9.5t25 3.5t25.5 2.5t23.5 7.5t17.5 16.5t11 23t6.5 25.5t4 24l-10 73q0 22 2 39t4 32.5l4 31t2 34.5q0 6 5.5 17.5t13 24t15 23t11.5 13.5q11 10 30 17t42 11.5t48.5 6.5t51.5 2h94q6 0 8 -14t2 -20q0 -9 -1 -19.5t1 -18.5q-39 0 -60 -6t-32 -16.5t-17.5 -26.5
t-16.5 -35q-5 -9 -6.5 -15t-1.5 -19q0 -12 2 -28.5t2 -32.5q0 -11 -2.5 -19.5t-5.5 -16t-5.5 -16t-2.5 -20.5v-35q0 -27 -17 -42t-49 -29q-6 -3 -15 -5t-17.5 -5t-14 -8.5t-5.5 -15.5q0 -5 6 -10t15 -8.5t19.5 -6.5t18.5 -5q3 -1 8.5 -4t11 -6.5t10 -8t4.5 -7.5q0 -5 6.5 -9
t6.5 -9v-24t1 -11.5t3.5 -10.5t7.5 -21l-8 -47q6 -15 14 -26.5t8 -31.5q0 -9 -1 -15.5l-2 -13t-2 -14.5t-1 -21t0.5 -21t3 -13.5t7.5 -10t13 -11.5q7 -4 7 -9t8 -7q13 -5 30 -5.5t32.5 -2t26 -7t10.5 -18.5q0 -3 -0.5 -9.5t-0.5 -14v-14t1 -9.5h-39z" />
    <glyph glyph-name="bar" unicode="|" horiz-adv-x="500" 
d="M328 -190q0 -10 -6 -20t-15 -17.5t-20 -12t-21 -4.5q-5 0 -8 1.5t-8 2.5q-8 1 -23.5 0t-22.5 4q-5 3 -9 12t-7.5 19.5t-6 21.5t-3.5 19l16 240v54q-3 16 -2.5 28.5t-1.5 29.5q-2 14 -5 25.5t-5.5 23t-4 24t0.5 29.5l12 146v146q0 25 -7 49t-7 53q0 10 3 25t9 28.5
t14.5 23t19.5 9.5q4 0 13.5 -1t20.5 -2q12 -2 26 -3q7 -9 19 -9t19 -7q5 -5 6.5 -13.5t1.5 -18.5q0 -20 -4 -40.5t-8 -41.5v-284q0 -18 3 -36.5t3 -33.5q0 -23 -6 -55.5t-4 -60.5l12 -142q2 -26 2.5 -41.5t0 -27.5t-1.5 -22t-1 -23q0 -19 3 -49t3 -49z" />
    <glyph glyph-name="braceright" unicode="}" horiz-adv-x="520" 
d="M510 266q0 -13 2 -30t-7 -24q-10 -8 -22 -10t-25 -3t-25.5 -2.5t-23.5 -7.5t-17.5 -16.5t-11 -23t-6.5 -25.5t-4 -24l10 -73q0 -22 -2 -39t-4 -32.5l-4 -31t-2 -34.5q0 -6 -5.5 -17.5t-13 -24t-15 -23t-11.5 -13.5q-11 -10 -30 -17t-42 -11.5t-49 -6.5t-51 -2h-94
q-3 0 -3.5 5t-0.5 12t1 13.5t1 9.5q0 9 -3 16.5t-5 15.5q39 0 60 6t32 16.5t17 26t17 35.5q5 9 6.5 15t1.5 19q0 12 3 30.5t3 34.5q0 11 -0.5 17.5t-1.5 12t-1.5 12t-0.5 18.5q0 11 5 22.5t5 20.5q0 27 17 42t49 29q6 3 15 5t17.5 5t14 8.5t5.5 15.5q0 3 0.5 7.5t-0.5 8
t-6 5t-15 -2.5q-9 4 -19.5 7t-18.5 5q-3 1 -8.5 4t-11 6.5t-10 8t-4.5 7.5q0 5 -6.5 9t-6.5 9v24t-1 11.5t-3.5 10.5t-7.5 21v47q-6 15 -1 27.5t5 32.5q0 9 -2 15l-4 12t-4 14t-2 21t-0.5 21t-3 13.5t-7.5 10t-13 11.5q-7 4 -7 9t-8 7q-13 4 -30 5t-32.5 2.5t-26 6.5
t-10.5 19q0 3 0.5 9.5t0.5 14v14t-1 9.5h39q44 -5 91 -3.5t90 -7.5q21 -5 40.5 -13t29.5 -17q17 -17 32.5 -36.5t15.5 -43.5q0 -26 1.5 -61t1.5 -62t4.5 -47t4.5 -48v-26q0 -17 8.5 -32.5t19.5 -15.5q7 0 10.5 -2.5t7.5 -5t9.5 -5t17.5 -2.5q15 0 21.5 -2t18.5 -4z" />
    <glyph glyph-name="asciitilde" unicode="~" horiz-adv-x="834" 
d="M768 384q0 -14 -2.5 -23.5t-6 -18t-7 -17.5t-4.5 -21q-1 -6 -1.5 -14t-1.5 -16t-3 -14.5t-6 -9.5q-5 -4 -16 -5.5t-16 -4.5q-21 -12 -40 -21.5t-39.5 -16.5t-44 -10.5t-52.5 -3.5q-26 0 -47 3.5t-39 9.5t-34.5 13.5t-35.5 15.5q-11 4 -21 10.5t-21.5 12.5t-24 10.5
t-27.5 4.5q-16 0 -23 -6.5t-21 -9.5q-20 -4 -38.5 -7t-35.5 -11q-9 -4 -16 -10.5t-14.5 -13.5t-16.5 -12.5t-21 -7.5q-1 10 -3.5 17t-5.5 14t-5 14t-2 17q0 8 4 14t6 12q6 20 12 33.5t13.5 23t19 17t29.5 16.5q16 8 32.5 15.5t34.5 13.5t39.5 9.5t47.5 3.5q20 0 33.5 -3.5
t24 -8.5t19.5 -11t21 -11q7 -3 13.5 -3t12.5 -5q8 -6 15 -12.5t16 -12t21 -8.5t30 -3q29 0 59.5 4.5t50.5 15.5q7 4 17.5 7t21.5 6.5t21 7.5t16 9q8 7 15 17.5t21 10.5q6 0 16 -8t10 -18z" />
    <glyph glyph-name="uni00A0" unicode="&#xa0;" horiz-adv-x="500" 
 />
    <glyph glyph-name="exclamdown" unicode="&#xa1;" horiz-adv-x="382" 
d="M292 -98q0 -13 -2.5 -22.5t-6 -17.5l-7 -16t-6.5 -18l-58 -2q-14 6 -36.5 8t-45 6t-39 10.5t-17.5 21.5l12 144q-4 8 -4.5 8.5t0.5 -1t2.5 -1t1.5 9.5t5 12t5 12q0 8 -3 22.5t-3 25.5q0 9 2 14.5t5 9.5t6.5 7.5t6.5 8.5q6 11 8.5 27t5.5 29q1 7 6 21t12 28t16 24.5
t18 10.5q21 0 33.5 -5t14.5 -25l30 -106q-1 -7 -0.5 -8.5t0.5 -9.5q0 -22 8.5 -41.5t13.5 -40.5v-56q3 -7 6 -18t5.5 -23.5t3.5 -25.5t1 -23zM290 388q0 -9 -10 -14.5t-16 -9.5q-21 -13 -42 -24.5t-54 -11.5q-10 0 -17.5 7t-14.5 9q-12 4 -23.5 8t-20.5 10t-14.5 15.5
t-5.5 26.5v21t1.5 26.5t3.5 24.5t7 16q4 5 15.5 8t16.5 6q19 9 35.5 20.5t44.5 11.5q14 0 24 -8t20 -14q7 -5 17 -7t17 -7q6 -5 11 -21.5t5 -26.5v-66z" />
    <glyph glyph-name="cent" unicode="&#xa2;" horiz-adv-x="580" 
d="M548 217q0 -18 -4.5 -28t-11 -17.5t-15 -13.5t-15.5 -15q-15 -17 -27 -32.5t-39 -23.5q-20 -5 -34.5 -7t-33.5 -7q-6 -2 -10 -10.5t-7 -19t-4 -21t-1 -17.5v-24q0 -5 -5.5 -11.5t-13 -13t-14 -11t-9.5 -4.5q-2 0 -6 7t-6 9q-7 11 -15 16.5t-13 13.5q-4 7 -3 20.5t1 21.5
q0 14 -0.5 20.5t2.5 15.5q-14 2 -23.5 4t-24.5 2q-11 0 -17.5 3t-12.5 7t-11.5 8.5t-12.5 7.5q-22 9 -37.5 19.5t-27.5 24t-22 30.5t-19 38q-5 11 -10.5 22t-5.5 28t4 26t6 22q2 11 0 21t0 21q2 20 10.5 37t11.5 37l8 52q2 6 12 14t14 12q8 8 12.5 13t9 9.5t10 9t14.5 10.5
q11 8 27.5 15.5t28.5 12.5q12 6 23 6t19 1.5t13 7.5t5 23v50q0 3 5.5 10t13 14.5t14.5 13.5t9 8q5 -5 12.5 -14t14.5 -19t12 -20.5t5 -18.5q0 -17 -3 -24.5t-3 -23.5q0 -6 8 -4q4 1 8 4q5 1 13 0.5t15 -0.5q22 0 34.5 -8.5t27.5 -15.5q12 -5 28 -9.5t28 -12.5q14 -10 17 -30
t3 -44q0 -21 -7 -33.5t-19.5 -19.5t-29 -9t-34.5 -2q-23 0 -41.5 9.5t-28.5 24.5q-5 8 -9.5 17.5t-10.5 18t-14.5 14.5t-21.5 6q-8 0 -16.5 -8t-16 -19t-13 -22.5t-6.5 -18.5q-2 -16 -2.5 -23.5t-5.5 -18.5q-3 -6 -13.5 -16t-10.5 -18q0 -5 4 -7.5t9.5 -4t10 -3.5t6.5 -5
q3 -7 1 -12t1 -12q4 -10 10 -28t14 -26q6 -6 17 -9.5t11 -14.5v-16q0 -6 7 -10t17 -7t21 -4t19 -1q22 0 37.5 8t29 17t28.5 17t37</font>
</defs>
</svg>
